<?xml version="1.0" standalone="no"?>
<!DOCTYPE svg PUBLIC "-//W3C//DTD SVG 1.1//EN" "http://www.w3.org/Graphics/SVG/1.1/DTD/svg11.dtd" >
<svg xmlns="http://www.w3.org/2000/svg">
<metadata></metadata>
<defs>
<font id="soho_gothic_proregular" horiz-adv-x="1185" >
<font-face units-per-em="2048" ascent="1602" descent="-446" />
<missing-glyph horiz-adv-x="391" />
<glyph horiz-adv-x="2048" />
<glyph horiz-adv-x="2048" />
<glyph unicode="&#xd;" horiz-adv-x="2048" />
<glyph unicode=" "  horiz-adv-x="391" />
<glyph unicode="&#x09;" horiz-adv-x="391" />
<glyph unicode="&#xa0;" horiz-adv-x="391" />
<glyph unicode="!" horiz-adv-x="514" d="M158 1585h198l-18 -1190h-160zM164 0v276h186v-276h-186z" />
<glyph unicode="&#x22;" horiz-adv-x="692" d="M41 1063l25 491h186l-74 -491h-137zM440 1063l25 491h186l-73 -491h-138z" />
<glyph unicode="#" horiz-adv-x="1517" d="M172 403v158h219l41 383h-260v156h279l47 422h164l-46 -422h342l50 422h163l-45 -422h217v-156h-235l-41 -383h276v-158h-294l-45 -403h-164l43 403h-344l-43 -403h-166l45 403h-203zM557 561h344l41 383h-344z" />
<glyph unicode="$" horiz-adv-x="1269" d="M150 1178q0 165 97 255t294 109v209h178v-207q105 -3 203 -15t145 -24v-149q-239 26 -414 26q-159 0 -236 -45t-77 -159q0 -90 43 -145.5t162 -108.5l262 -115q164 -72 239.5 -170t75.5 -254q0 -180 -101.5 -284t-301.5 -124v-223h-178v219q-109 4 -211.5 17t-145.5 24 v148q233 -27 434 -27q158 0 235 59.5t77 190.5q0 93 -44 151.5t-163 112.5l-260 117q-160 71 -236.5 165.5t-76.5 246.5z" />
<glyph unicode="%" horiz-adv-x="2187" d="M119 1012v112q0 93 19.5 167.5t60.5 132t112 89t168 31.5q359 0 359 -420v-112q0 -420 -359 -420q-97 0 -168 31.5t-112 89.5t-60.5 132t-19.5 167zM283 1012q0 -154 46.5 -217.5t149.5 -63.5q102 0 148.5 63t46.5 218v112q0 155 -46.5 218t-148.5 63q-101 0 -148.5 -66 t-47.5 -215v-112zM512 0l971 1522h184l-971 -1522h-184zM1346 397v117q0 204 93 310t267 106t267 -106t93 -310v-117q0 -204 -93 -310.5t-267 -106.5t-267 106.5t-93 310.5zM1509 397q0 -155 52 -216.5t145 -61.5t145 61.5t52 216.5v117q0 154 -52 215.5t-145 61.5 t-145 -61.5t-52 -215.5v-117z" />
<glyph unicode="&#x26;" horiz-adv-x="1513" d="M123 393q0 146 76.5 255.5t232.5 197.5q-46 50 -66 73t-52.5 66t-47 73.5t-26 74t-11.5 88.5q0 170 109 247.5t336 77.5q208 0 373 -33v-147q-167 16 -373 16q-141 0 -197.5 -33t-56.5 -126q0 -64 40 -126.5t150 -181.5l475 -514q52 136 62 347l-125 14v141h399v-141 l-118 -14q-13 -292 -107 -467l229 -248v-33h-215l-125 133q-168 -162 -467 -162q-235 0 -365 101.5t-130 320.5zM315 393q0 -268 301 -268q244 0 369 119l-448 489q-111 -65 -166.5 -141t-55.5 -199z" />
<glyph unicode="'" horiz-adv-x="292" d="M41 1063l25 491h186l-74 -491h-137z" />
<glyph unicode="(" horiz-adv-x="729" d="M143 541q0 168 30 325t81 279.5t104 213.5t113 163h178q-157 -212 -239 -443.5t-82 -537.5q0 -296 82 -525t239 -440h-178q-59 72 -112.5 162.5t-104.5 212t-81 275t-30 315.5z" />
<glyph unicode=")" horiz-adv-x="729" d="M78 -424q159 211 241 442t82 537q0 297 -82.5 527t-240.5 440h180q59 -72 112 -163t103.5 -213.5t80.5 -279.5t30 -325q0 -162 -30 -315.5t-80.5 -274.5t-103.5 -212t-112 -163h-180z" />
<glyph unicode="*" horiz-adv-x="1089" d="M139 1231l49 153l144 -47q84 -26 143 -55q-10 85 -10 152v151h160v-151q0 -70 -13 -156q33 17 146 57l143 49l49 -153l-143 -47q-84 -26 -152 -39q48 -45 101 -117l88 -121l-129 -94l-88 121q-36 48 -84 131q-24 -46 -82 -129l-86 -123l-131 94l88 123q43 62 98 117 q-59 11 -147 39z" />
<glyph unicode="+" horiz-adv-x="1437" d="M205 725v149h440v441h150v-441h436v-149h-436v-440h-150v440h-440z" />
<glyph unicode="," horiz-adv-x="567" d="M51 -182l191 465h215l-238 -465h-168z" />
<glyph unicode="-" horiz-adv-x="811" d="M152 522v154h505v-154h-505z" />
<glyph unicode="." horiz-adv-x="516" d="M166 0v283h184v-283h-184z" />
<glyph unicode="/" horiz-adv-x="841" d="M20 0l625 1522h176l-622 -1522h-179z" />
<glyph unicode="0" horiz-adv-x="1306" d="M119 612v293q0 316 138 478.5t396 162.5t396.5 -162.5t138.5 -478.5v-293q0 -315 -138.5 -478t-396.5 -163q-257 0 -395.5 163t-138.5 478zM307 612q0 -479 346 -479t346 479v293q0 479 -346 479t-346 -479v-293z" />
<glyph unicode="1" horiz-adv-x="1144" d="M125 1227v164l405 143h138v-1368l352 -12v-154h-893v154l354 12v1175z" />
<glyph unicode="2" horiz-adv-x="1208" d="M131 0v193q0 101 17 178t49 137.5t91.5 116t129.5 101.5t178 105q186 100 246.5 170.5t60.5 176.5q0 116 -77.5 161t-268.5 45q-203 0 -391 -30v145q209 47 401 47q268 0 396.5 -87.5t128.5 -280.5q0 -147 -85 -257t-307 -229q-167 -89 -245.5 -154.5t-109 -141 t-30.5 -201.5v-29h758v-166h-942z" />
<glyph unicode="3" horiz-adv-x="1222" d="M154 25v141q244 -33 413 -33q91 0 151.5 11.5t106.5 42t67 85.5t21 140v51q0 46 -4.5 78.5t-20 66.5t-42.5 54.5t-74.5 33.5t-114.5 13h-440v157h440q67 0 114.5 14t74.5 36t42.5 57t20 68t4.5 79q0 155 -72.5 209.5t-275.5 54.5q-167 0 -405 -28v145q50 11 175.5 28 t233.5 17q139 0 235 -20.5t165 -69.5t101 -131.5t32 -204.5q0 -109 -44.5 -197t-139.5 -135q184 -93 184 -325v-51q0 -123 -35.5 -209t-106 -136.5t-166 -73t-225.5 -22.5q-187 0 -415 54z" />
<glyph unicode="4" horiz-adv-x="1337" d="M96 401v193l695 928h215v-957h231v-164h-231v-401h-189v401h-721zM285 565h532v703z" />
<glyph unicode="5" horiz-adv-x="1198" d="M104 20v150q4 -1 75 -9.5t111 -13t108 -9.5t122 -5q205 0 289 64.5t84 226.5v59q0 105 -30.5 162t-111 85t-231.5 28h-385l66 764h823v-168h-664l-38 -434h206q290 0 420.5 -103t130.5 -334v-59q0 -240 -138.5 -346.5t-416.5 -106.5q-190 0 -420 49z" />
<glyph unicode="6" horiz-adv-x="1292" d="M119 575v396q0 144 29 248t94 179t176 111.5t270 36.5q202 0 416 -45v-147q-240 30 -412 30q-74 0 -132 -10.5t-98.5 -27.5t-69 -47t-45 -61t-25.5 -77t-12 -88.5t-3 -101.5v-72q72 21 175.5 34t181.5 13q70 0 127 -6t117.5 -21t105.5 -44t82 -72.5t56 -110.5t19 -153 v-86q0 -86 -19 -157.5t-50 -120.5t-75 -86.5t-89 -59t-97 -35.5t-94 -18.5t-85 -4.5q-65 0 -116 4.5t-110 20t-102.5 41.5t-86 71.5t-69 108t-43 153.5t-16.5 205zM307 565q0 -130 24 -216.5t73 -133t110 -64.5t148 -18q66 0 123 18.5t102 56t70.5 100.5t25.5 145v77 q0 84 -21 137.5t-66.5 81t-100.5 37t-140 9.5q-186 0 -348 -39v-191z" />
<glyph unicode="7" horiz-adv-x="1179" d="M106 1354v168h986v-201l-664 -1321h-211l698 1354h-809z" />
<glyph unicode="8" horiz-adv-x="1339" d="M127 438q0 135 40.5 217.5t125.5 135.5q-160 96 -160 319q0 108 31.5 188t81 126.5t123.5 75t144.5 37.5t158.5 9q86 0 155.5 -9t142.5 -37.5t122 -74.5t80.5 -126.5t31.5 -188.5q0 -223 -160 -319q85 -53 125.5 -135.5t40.5 -217.5q0 -73 -10.5 -133.5t-27.5 -105.5 t-45 -80.5t-56.5 -59t-69.5 -40.5t-76 -26t-84 -14t-86 -6.5t-89 -1.5q-51 0 -87 1.5t-84.5 6.5t-83.5 14t-75.5 26t-69 40.5t-56.5 59t-45 80.5t-27.5 105.5t-10.5 133.5zM315 438q0 -81 18 -137.5t46 -89t77 -50.5t97 -23t119 -5q69 0 116 5t95 23t76 50.5t45.5 89 t17.5 137.5q-2 147 -48.5 210t-166.5 63h-277q-120 0 -167.5 -63.5t-47.5 -209.5zM319 1110q0 -120 47 -180t164 -60h277q117 0 164 60t47 180q0 71 -17.5 121.5t-46.5 79.5t-76.5 46t-95.5 22t-116 5q-66 0 -113 -5t-94 -22t-75.5 -46t-46.5 -79.5t-18 -121.5z" />
<glyph unicode="9" horiz-adv-x="1292" d="M119 979v86q0 86 19 157.5t50 120t75 86t89.5 59.5t97 35.5t94 18t85.5 4.5q65 0 116 -4.5t109.5 -20t102.5 -41.5t86 -71.5t68.5 -108t43 -153.5t16.5 -205v-395q0 -144 -29 -248t-94 -179t-176 -112t-270 -37q-202 0 -416 45v148q248 -31 412 -31q74 0 132 10.5 t98.5 28t69 47t45 61t25.5 77.5t12 88.5t3 101.5v71q-72 -21 -175.5 -34t-180.5 -13q-70 0 -127 6t-118 21t-106 44.5t-82 73t-56 110.5t-19 153zM307 987q0 -68 15 -115.5t40.5 -76.5t68.5 -45t89.5 -21.5t114.5 -5.5q186 0 348 39v190q0 130 -24 216.5t-72.5 133 t-109.5 64.5t-148 18q-67 0 -123.5 -18.5t-101.5 -55.5t-71 -100t-26 -145v-78z" />
<glyph unicode=":" horiz-adv-x="528" d="M170 0v283h186v-283h-186zM170 844v282h186v-282h-186z" />
<glyph unicode=";" horiz-adv-x="548" d="M-2 -182l190 465h213l-241 -465h-162zM190 844v282h187v-282h-187z" />
<glyph unicode="&#x3c;" horiz-adv-x="1437" d="M295 801l594 514h252l-596 -514l596 -516h-252z" />
<glyph unicode="=" horiz-adv-x="1437" d="M260 500v151h916v-151h-916zM260 950v154h916v-154h-916z" />
<glyph unicode="&#x3e;" horiz-adv-x="1437" d="M295 285l594 516l-594 514h250l596 -514l-596 -516h-250z" />
<glyph unicode="?" horiz-adv-x="966" d="M61 1425v140q174 47 338 47q213 0 320.5 -81.5t107.5 -268.5q0 -101 -46.5 -190.5t-166.5 -209.5q-70 -70 -108 -116.5t-57.5 -91.5t-24 -78.5t-4.5 -94.5v-86h-180v86q0 97 12 158t56.5 134.5t133.5 160.5q116 113 155.5 180.5t39.5 147.5q0 111 -60.5 149.5 t-193.5 38.5q-91 0 -322 -25zM240 0v283h184v-283h-184z" />
<glyph unicode="@" horiz-adv-x="1708" d="M111 336q0 153 24 297q61 375 252.5 542.5t538.5 167.5q335 0 502 -151.5t167 -437.5q0 -116 -22.5 -210.5t-75 -176.5t-135 -137.5t-207.5 -87t-287 -31.5q-213 0 -310 75t-97 232q0 138 18.5 240t51 166.5t83.5 103.5t109.5 54t136.5 15q173 0 334 -41l-68 -673 q324 73 324 473q0 236 -128.5 350.5t-395.5 114.5q-284 0 -439 -139t-211 -464q-24 -144 -24 -282q0 -79 14 -142.5t50 -120t93.5 -95t148.5 -60.5t210 -22q73 0 161.5 4.5t139 8t64.5 5.5v-102q-201 -31 -363 -31q-177 0 -306 40t-205 115.5t-112 174.5t-36 225zM631 418 q0 -95 52 -130.5t181 -35.5q53 0 86 2l56 584q-52 8 -144 8q-47 0 -78 -7.5t-62.5 -32.5t-49.5 -71t-29.5 -125t-11.5 -192z" />
<glyph unicode="A" horiz-adv-x="1357" d="M51 0l498 1522h260l498 -1522h-201l-158 498h-545l-161 -498h-191zM459 670h432l-143 444q-38 116 -62 250h-20q-31 -157 -62 -250z" />
<glyph unicode="B" horiz-adv-x="1308" d="M174 0v1522h401q85 0 151 -4t132 -15.5t114.5 -31t90.5 -50.5t68.5 -73.5t41.5 -102t15 -133.5q0 -104 -52 -194.5t-155 -133.5q215 -82 215 -356q0 -77 -16.5 -139t-45.5 -106.5t-74 -77t-96 -52.5t-118 -32t-133 -16.5t-148 -4.5h-391zM362 166h203q92 0 155 5.5 t121 21.5t91.5 44.5t53.5 76t20 114.5t-16 116t-53 87.5t-104.5 58t-164.5 19.5h-306v-543zM362 870h306q96 0 162 17t102 51t50.5 75.5t14.5 98.5q0 43 -6.5 76.5t-22 58t-33.5 42.5t-49 30t-59.5 19t-73 10.5t-82.5 4.5t-96 1h-213v-484z" />
<glyph unicode="C" horiz-adv-x="1140" d="M113 635v252q0 113 16 205t44.5 159.5t72 119t93.5 84.5t114 53.5t130 29t144 8.5q139 0 352 -35v-153q-235 20 -352 20q-111 0 -188 -24t-132 -80.5t-80.5 -151.5t-25.5 -235v-252q0 -140 25.5 -235.5t80.5 -152.5t132 -81.5t188 -24.5q129 0 352 19v-154 q-213 -35 -352 -35q-91 0 -166.5 12.5t-147 40.5t-124.5 78.5t-93.5 122.5t-61.5 175.5t-21 234.5z" />
<glyph unicode="D" horiz-adv-x="1380" d="M174 0v1522h426q174 0 303.5 -44.5t208.5 -129t117.5 -199.5t38.5 -262v-248q0 -149 -36 -263.5t-114 -200.5t-208 -130.5t-310 -44.5h-426zM362 166h222q252 0 372.5 109.5t120.5 363.5v248q0 253 -120 360t-373 107h-222v-1188z" />
<glyph unicode="E" horiz-adv-x="1187" d="M174 0v1522h901v-168h-713v-480h670v-169h-670v-539h713v-166h-901z" />
<glyph unicode="F" horiz-adv-x="1167" d="M174 0v1522h901v-168h-713v-480h670v-169h-670v-705h-188z" />
<glyph unicode="G" horiz-adv-x="1298" d="M113 627v268q0 155 35 272.5t91 188t137.5 114.5t163 60t179.5 16q222 0 446 -39v-151q-73 6 -216 14t-204 8q-84 0 -145.5 -10t-120.5 -40.5t-95.5 -82.5t-58.5 -140t-22 -210v-268q0 -143 28 -238.5t86.5 -149t135.5 -75t188 -21.5q129 0 236 7v641h188v-777 q-219 -43 -448 -43q-106 0 -193 19.5t-165 66.5t-131 120.5t-84 187.5t-31 262z" />
<glyph unicode="H" horiz-adv-x="1486" d="M174 0v1522h188v-633h762v633h189v-1522h-189v719h-762v-719h-188z" />
<glyph unicode="I" horiz-adv-x="536" d="M174 0v1522h188v-1522h-188z" />
<glyph unicode="J" horiz-adv-x="534" d="M-104 -291h32q49 0 75 0.5t57 3t44.5 6t29.5 13t21.5 20t11 30t6.5 41t1 54.5v1645h186v-1645q0 -173 -69 -249.5t-244 -76.5q-98 0 -151 17v141z" />
<glyph unicode="K" horiz-adv-x="1298" d="M184 0v1522h189v-715l653 715h242l-686 -748l686 -774h-258l-637 733v-733h-189z" />
<glyph unicode="L" horiz-adv-x="1110" d="M174 0v1522h188v-1356h697v-166h-885z" />
<glyph unicode="M" horiz-adv-x="1665" d="M174 0v1522h248l315 -686q14 -29 29 -64l33 -77t28 -64h4q4 10 95 209l319 682h246v-1522h-186v989q0 110 10 283h-4q-14 -35 -109 -234l-256 -546h-231l-250 546q-35 78 -109 234h-4q8 -208 8 -283v-989h-186z" />
<glyph unicode="N" horiz-adv-x="1445" d="M174 0v1522h270l531 -1063q58 -117 123 -260h4q-10 151 -10 333v990h180v-1522h-268l-537 1092q-102 209 -123 258h-4q10 -167 10 -318v-1032h-176z" />
<glyph unicode="O" horiz-adv-x="1400" d="M113 651v217q0 326 151.5 502t435.5 176t436 -176t152 -502v-217q0 -326 -152 -503t-436 -177q-283 0 -435 177t-152 503zM303 651q0 -267 105.5 -389.5t291.5 -122.5t292 122.5t106 389.5v217q0 267 -106 388.5t-292 121.5t-291.5 -121.5t-105.5 -388.5v-217z" />
<glyph unicode="P" horiz-adv-x="1239" d="M174 0v1522q49 0 146.5 1t144.5 1q97 0 160.5 -2.5t144.5 -12.5t132.5 -29t106.5 -54t86 -85t51.5 -124.5t20.5 -169.5q0 -74 -14.5 -134.5t-35 -105.5t-63 -79.5t-77.5 -57t-100 -38t-110 -23.5t-128 -12t-132.5 -4.5t-144.5 -0.5v-592h-188zM362 758h62q111 0 170.5 2 t134 10.5t111.5 26.5t73.5 50t50 81t13.5 119q0 64 -12.5 111.5t-30 80.5t-55 54.5t-71 34t-96.5 18t-112 7t-137 1.5h-101v-596z" />
<glyph unicode="Q" horiz-adv-x="1400" d="M113 651v217q0 326 151.5 502t435.5 176t436 -176t152 -502v-217q0 -297 -128.5 -471t-366.5 -203v-112q0 -63 24.5 -82t112.5 -19h174v-129q-97 -20 -227 -20q-52 0 -90 5.5t-73.5 21.5t-57.5 43.5t-35 72.5t-13 107v112q-240 29 -367.5 202t-127.5 472zM303 651 q0 -267 105.5 -389.5t291.5 -122.5t292 122.5t106 389.5v217q0 267 -106 388.5t-292 121.5t-291.5 -121.5t-105.5 -388.5v-217z" />
<glyph unicode="R" horiz-adv-x="1304" d="M174 0v1522h358q114 0 202 -10.5t172.5 -41t139.5 -81t88 -134.5t33 -198q0 -175 -72.5 -275.5t-211.5 -148.5l381 -633h-224l-358 594q-41 -2 -143 -2h-177v-592h-188zM362 758h177q117 0 194.5 13t134.5 46.5t83 92t26 147.5q0 75 -19 128t-52 86t-90.5 51.5t-123 25 t-160.5 6.5h-170v-596z" />
<glyph unicode="S" horiz-adv-x="1198" d="M113 1178q0 187 123 277.5t374 90.5q122 0 245 -14t175 -27v-149q-239 26 -414 26q-159 0 -236 -45t-77 -159q0 -90 43 -145.5t162 -108.5l262 -115q164 -72 239.5 -170t75.5 -254q0 -200 -127 -307t-376 -107q-123 0 -252.5 14.5t-182.5 28.5v148q233 -27 435 -27 q158 0 234.5 59.5t76.5 190.5q0 93 -44 151.5t-163 112.5l-260 117q-160 71 -236.5 165.5t-76.5 246.5z" />
<glyph unicode="T" horiz-adv-x="1249" d="M61 1354v168h1127v-168h-469v-1354h-189v1354h-469z" />
<glyph unicode="U" horiz-adv-x="1431" d="M164 633v889h188v-869q0 -281 79.5 -396.5t285.5 -115.5q204 0 284 116t80 396v869h187v-889q0 -330 -138.5 -496t-412.5 -166q-553 0 -553 662z" />
<glyph unicode="V" horiz-adv-x="1378" d="M61 1522h201l361 -1116q13 -38 25 -83t25 -101.5t19 -78.5h4q41 184 68 263l360 1116h193l-502 -1522h-252z" />
<glyph unicode="W" horiz-adv-x="1843" d="M92 1522h201l178 -1069q8 -50 24.5 -151.5t24.5 -151.5h10q12 50 33 150.5t33 150.5l182 845h295l184 -852q10 -49 32 -147t32 -147h10q13 99 47 303l181 1069h192l-274 -1522h-301l-207 942q-7 33 -21.5 97.5t-21.5 97.5h-6q-7 -33 -21.5 -97.5t-21.5 -97.5l-205 -942 h-305z" />
<glyph unicode="X" horiz-adv-x="1376" d="M61 0l506 774l-501 748h223l409 -615l398 615h209l-506 -756l516 -766h-230l-413 627l-402 -627h-209z" />
<glyph unicode="Y" horiz-adv-x="1284" d="M41 1522h207l276 -502q82 -151 117 -242h12q10 27 27 62.5t30 59t35.5 65t30.5 55.5l275 502h192l-508 -920v-602h-186v602z" />
<glyph unicode="Z" horiz-adv-x="1277" d="M113 0v209l821 1145h-791v168h994v-207l-820 -1149h848v-166h-1052z" />
<glyph unicode="[" horiz-adv-x="827" d="M233 -426v1948h476v-158h-293v-1636h293v-154h-476z" />
<glyph unicode="\" horiz-adv-x="905" d="M51 1522h176l625 -1522h-178z" />
<glyph unicode="]" horiz-adv-x="827" d="M117 -272h293v1638h-293v156h475v-1948h-475v154z" />
<glyph unicode="^" horiz-adv-x="1437" d="M223 850l338 678h311l338 -678h-200l-293 586l-291 -586h-203z" />
<glyph unicode="_" horiz-adv-x="1175" d="M-12 -96h1198v-121h-1198v121z" />
<glyph unicode="`" horiz-adv-x="935" d="M111 1577h223l268 -315h-184z" />
<glyph unicode="a" horiz-adv-x="1116" d="M102 291v41q0 87 24.5 150t66.5 101t110.5 60t142 29.5t175.5 7.5h167v82q0 77 -9 120t-39 71t-79 37t-137 9q-137 0 -348 -24v131q39 14 144 31.5t219 17.5q93 0 162.5 -11t117 -34.5t78 -54.5t47.5 -78t23 -96.5t6 -118.5v-762h-176v76q-152 -105 -359 -105 q-336 0 -336 320zM287 276q0 -90 48.5 -125.5t139.5 -35.5q89 0 178 29.5t135 60.5v336h-167q-96 0 -153.5 -7.5t-101.5 -29.5t-61.5 -63.5t-17.5 -108.5v-56z" />
<glyph unicode="b" horiz-adv-x="1183" d="M158 0v1585h184v-502q138 76 303 76q218 0 322 -117t104 -362v-193q0 -267 -123.5 -391.5t-376.5 -124.5q-140 0 -413 29zM342 145q127 -10 233 -10q163 0 237.5 79t74.5 275v193q0 171 -60 243t-204 72q-62 0 -143 -13.5t-138 -45.5v-793z" />
<glyph unicode="c" horiz-adv-x="976" d="M113 479v170q0 247 111.5 376.5t338.5 129.5q195 0 322 -39v-139q-196 20 -295 20q-57 0 -100 -9t-80.5 -32.5t-61.5 -62.5t-37.5 -100t-13.5 -144v-170q0 -103 20 -173t60 -108t90.5 -53.5t122.5 -15.5q90 0 295 21v-140q-127 -39 -322 -39q-226 0 -338 131t-112 377z " />
<glyph unicode="d" horiz-adv-x="1183" d="M113 453v194q0 99 16 177.5t46.5 133.5t71.5 94t94.5 61t111 32t125.5 10q119 0 264 -29v459h184v-1585h-178v57q-145 -86 -316 -86q-203 0 -311 119t-108 363zM297 453q0 -168 64.5 -246t205.5 -78q132 0 275 70v774q-149 26 -252 26q-59 0 -101 -7.5t-80.5 -29.5 t-61.5 -61t-36.5 -102t-13.5 -152v-194z" />
<glyph unicode="e" d="M113 514v86q0 269 120 412t357 143q246 0 364.5 -144.5t118.5 -432.5v-82h-776v-23q0 -47 2.5 -81t10.5 -72t22.5 -64t40 -51.5t61 -40.5t87 -24t116.5 -9q199 0 393 33v-148q-176 -45 -401 -45q-149 0 -249 32.5t-159 103t-83.5 168t-24.5 239.5zM299 647h584v21 q0 48 -5 87.5t-22.5 86t-47.5 78.5t-85.5 53.5t-130.5 21.5q-293 0 -293 -327v-21z" />
<glyph unicode="f" horiz-adv-x="823" d="M41 989v137h213v136q0 61 4.5 104.5t21.5 93t47.5 80.5t85.5 51.5t132 20.5q111 0 217 -29v-125q-15 1 -53 3t-73.5 3.5t-66.5 1.5q-46 0 -73 -10.5t-39.5 -39.5t-15.5 -60t-3 -94v-136h320v-153h-320v-973h-184v973z" />
<glyph unicode="g" horiz-adv-x="1183" d="M113 494v141q0 264 120.5 392t387.5 128q171 0 405 -29v-1189q0 -74 -10.5 -130t-39 -108t-76 -84.5t-125 -52t-183.5 -19.5q-112 0 -240.5 15.5t-173.5 25.5v133q246 -16 414 -16q82 0 133 14t76 46.5t33 71.5t8 104v57q-130 -21 -228 -21q-123 0 -212.5 26.5t-156 86 t-99.5 161.5t-33 247zM297 494q0 -142 33 -221t100.5 -111.5t185.5 -32.5q57 0 128.5 6.5t97.5 11.5v838q-80 14 -221 14q-184 0 -254 -86t-70 -278v-141z" />
<glyph unicode="h" horiz-adv-x="1220" d="M158 0v1585h182v-522q179 92 367 92q184 0 272 -107t88 -329v-719h-184v713q0 163 -47 222.5t-166 59.5q-165 0 -330 -80v-915h-182z" />
<glyph unicode="i" horiz-adv-x="524" d="M170 0v1126h184v-1126h-184zM170 1335v250h186v-250h-186z" />
<glyph unicode="j" horiz-adv-x="524" d="M-68 -311q11 0 52.5 -1t68.5 -1q73 0 95 35.5t22 140.5v1263h184v-1263q0 -180 -62 -250t-222 -70q-88 0 -138 11v135zM170 1335v250h186v-250h-186z" />
<glyph unicode="k" horiz-adv-x="1069" d="M158 0v1585h182v-967l453 508h237l-487 -534l495 -592h-243l-455 559v-559h-182z" />
<glyph unicode="l" horiz-adv-x="522" d="M170 0v1585h182v-1585h-182z" />
<glyph unicode="m" horiz-adv-x="1753" d="M158 0v1126h182v-88q158 117 336 117t248 -121q184 121 348 121q94 0 159.5 -28t97.5 -62.5t49 -99.5t19 -104.5t2 -110.5v-2v-748h-184v748q0 38 -0.5 56.5t-2.5 48.5t-6 44t-12 34t-20 29.5t-29.5 19.5t-42 13.5t-55.5 3.5q-122 0 -284 -94q8 -53 8 -155v-748h-185v748 v50.5t-1.5 44t-4 41t-7.5 33t-12.5 29.5t-19 21t-27 17t-36 9t-45.5 4q-122 0 -293 -98v-899h-182z" />
<glyph unicode="n" horiz-adv-x="1220" d="M158 0v1126h182v-88q111 57 199.5 87t175.5 30q88 0 151 -20t102 -54t61 -91t30 -120t8 -151v-719h-184v719q0 159 -37.5 218.5t-151.5 59.5q-127 0 -354 -100v-897h-182z" />
<glyph unicode="o" d="M113 481v164q0 247 122 378.5t357 131.5q236 0 358.5 -131t122.5 -379v-164q0 -248 -122.5 -379t-358.5 -131q-235 0 -357 131.5t-122 378.5zM297 481q0 -183 70.5 -265.5t224.5 -82.5q155 0 226 82.5t71 265.5v164q0 183 -71 265.5t-226 82.5q-153 0 -224 -83t-71 -265 v-164z" />
<glyph unicode="p" horiz-adv-x="1181" d="M158 -430v1556h176v-75q149 104 328 104q201 0 304 -124t103 -400v-111q0 -127 -24 -223.5t-65.5 -157.5t-103.5 -99.5t-130.5 -53.5t-153.5 -15q-124 0 -252 33v-434h-182zM340 158q158 -31 252 -31q73 0 123 15.5t91 56.5t61 120.5t20 200.5v111q0 200 -61.5 281 t-192.5 81q-68 0 -132 -18t-161 -66v-751z" />
<glyph unicode="q" horiz-adv-x="1183" d="M113 496v112q0 160 31 267t97.5 168.5t157.5 86.5t224 25q175 0 403 -31v-1554h-182v481q-172 -80 -342 -80q-202 0 -295.5 122t-93.5 403zM297 496q0 -204 50.5 -283.5t184.5 -79.5q143 0 310 68v782q-132 10 -224 10q-71 0 -117 -7.5t-88 -30t-65.5 -65t-37 -112 t-13.5 -170.5v-112z" />
<glyph unicode="r" horiz-adv-x="770" d="M158 0v1126h180v-90q150 119 401 119v-164q-109 0 -221.5 -27t-177.5 -69v-895h-182z" />
<glyph unicode="s" horiz-adv-x="987" d="M102 874q0 142 99 211.5t309 69.5q102 0 201.5 -14t138.5 -27v-137q-198 20 -332 20q-129 0 -180 -24.5t-51 -98.5q0 -66 38 -104t158 -90l82 -35q138 -61 207 -108t101 -105.5t32 -146.5q0 -314 -420 -314q-105 0 -217 16t-151 29v142q12 -1 86 -9.5t145 -14t131 -5.5 q138 0 190 37t52 115q0 75 -41 113t-186 100l-82 34q-166 70 -238 148.5t-72 197.5z" />
<glyph unicode="t" horiz-adv-x="825" d="M51 989v137h228v293h184v-293h301v-153h-301v-707q0 -97 19 -122t96 -25q98 0 186 10v-127q-96 -31 -207 -31q-154 0 -216 64t-62 223v715z" />
<glyph unicode="u" horiz-adv-x="1220" d="M154 408v718h182v-718q0 -160 37.5 -219.5t152.5 -59.5q126 0 353 100v897h184v-1126h-184v88q-231 -117 -392 -117q-81 0 -141.5 22.5t-96.5 60t-58 95.5t-29.5 119t-7.5 140z" />
<glyph unicode="v" horiz-adv-x="1097" d="M47 1126h199l215 -692q20 -63 50.5 -167.5t41.5 -141.5q57 216 86 309l213 692h199l-375 -1126h-254z" />
<glyph unicode="w" horiz-adv-x="1701" d="M61 1126h189l149 -696q38 -188 45 -291h11q14 47 38.5 145t38.5 144l187 606h266l186 -606q14 -47 39.5 -145t38.5 -144h11q7 103 45 291l149 696h186l-254 -1126h-260l-208 676q-46 146 -62 227h-8q-16 -81 -62 -227l-208 -676h-261z" />
<glyph unicode="x" horiz-adv-x="1093" d="M47 0l399 573l-376 553h206l279 -409l272 409h205l-381 -551l396 -575h-207l-295 430l-291 -430h-207z" />
<glyph unicode="y" horiz-adv-x="1120" d="M47 -295q117 -8 213 -8q79 0 116.5 44.5t86.5 176.5l31 82l-437 1126h203l229 -632q28 -81 95 -299q38 158 86 301l207 630h196l-428 -1226q-26 -74 -47 -121.5t-52.5 -96.5t-68.5 -76.5t-90 -45t-121 -17.5q-117 0 -219 21v141z" />
<glyph unicode="z" horiz-adv-x="999" d="M82 0v207l627 766h-600v153h796v-190l-637 -784h639v-152h-825z" />
<glyph unicode="{" horiz-adv-x="843" d="M111 481v129q55 38 81.5 67.5t39 71t12.5 109.5v379q0 59 8 100.5t29.5 78.5t60 59t100 34.5t148.5 12.5h129v-156h-129q-58 0 -89 -4.5t-49 -21t-22 -38t-4 -65.5v-379q0 -116 -33 -188t-110 -125q76 -55 109.5 -127t33.5 -187v-376q0 -59 10 -84t43.5 -36t110.5 -11 h131v-154h-131q-86 0 -148 13t-100.5 35.5t-60 59.5t-29.5 78.5t-8 98.5v376q0 100 -26 147t-107 103z" />
<glyph unicode="|" horiz-adv-x="647" d="M231 -430v1952h183v-1952h-183z" />
<glyph unicode="}" horiz-adv-x="843" d="M123 -276h131q77 0 110.5 11t43.5 36t10 84v376q0 115 33.5 187t109.5 127q-77 53 -110 125t-33 188v379q0 44 -4 65.5t-22 38t-49 21t-89 4.5h-129v156h129q87 0 148.5 -12.5t100 -34.5t60 -59t29.5 -78.5t8 -100.5v-379q0 -68 12.5 -109.5t39 -71t81.5 -67.5v-129 q-81 -56 -107 -103t-26 -147v-376q0 -57 -8 -98.5t-29.5 -78.5t-60 -59.5t-100.5 -35.5t-148 -13h-131v154z" />
<glyph unicode="~" horiz-adv-x="1437" d="M240 717v92q0 136 55.5 210.5t183.5 74.5q58 0 102.5 -22t108.5 -73l123 -98q75 -59 148 -59q55 0 71.5 33t16.5 106v96h147v-96q0 -66 -10 -114.5t-34.5 -88t-70.5 -60t-112 -20.5q-137 0 -236 82l-129 105q-44 37 -68.5 51t-58.5 14q-54 0 -72 -33t-18 -108v-92h-147z " />
<glyph unicode="&#xa1;" horiz-adv-x="514" d="M158 -461l20 1190h160l18 -1190h-198zM164 848v276h186v-276h-186z" />
<glyph unicode="&#xa2;" horiz-adv-x="1015" d="M123 479v170q0 449 358 500v219h168v-215q147 -7 246 -37v-139q-196 20 -295 20q-57 0 -100 -9t-80.5 -32.5t-61.5 -62.5t-37.5 -100t-13.5 -144v-170q0 -103 20 -173t60 -108t90.5 -53.5t122.5 -15.5q89 0 295 21v-140q-99 -30 -246 -37v-219h-168v223q-180 26 -269 154 t-89 348z" />
<glyph unicode="&#xa3;" horiz-adv-x="1277" d="M133 715v155h160v156q0 108 11.5 185.5t41.5 143.5t82 106.5t132.5 62.5t193.5 22q222 0 389 -41v-147q-220 24 -377 24q-65 0 -110 -7t-77.5 -26t-51 -43.5t-29 -68.5t-14 -91t-3.5 -120v-156h510v-155h-510v-314q0 -134 -73 -241h735v-160h-942v143q49 52 70.5 122 t21.5 136v314h-160z" />
<glyph unicode="&#xa4;" horiz-adv-x="1335" d="M156 393l153 154q-67 106 -67 229q0 130 67 230l-153 153l127 127l155 -151q101 65 230 65q128 0 229 -65l154 149l129 -125l-154 -153q68 -114 68 -230q0 -123 -68 -229l154 -154l-129 -129l-156 154q-108 -68 -227 -68q-129 0 -230 68l-155 -152zM395 776 q0 -114 81.5 -196t191.5 -82t191 81.5t81 196.5t-81 197t-191 82q-111 0 -192 -82t-81 -197z" />
<glyph unicode="&#xa5;" horiz-adv-x="1329" d="M63 1522h207l277 -502q82 -151 117 -242h12q10 27 27 62.5t30 59t35.5 65t30.5 55.5l274 502h193l-295 -535h250v-147h-332l-113 -203h445v-148h-463v-489h-187v489h-465v148h445l-111 203h-334v147h252z" />
<glyph unicode="&#xa6;" horiz-adv-x="647" d="M231 387h183v-811h-183v811zM231 713v809h183v-809h-183z" />
<glyph unicode="&#xa7;" horiz-adv-x="1327" d="M178 772q0 117 51 209q-51 79 -51 205q0 181 119 270.5t379 89.5q225 0 420 -41v-155q-3 0 -94 8.5t-168 13t-150 4.5q-122 0 -190.5 -22t-93.5 -61.5t-25 -106.5q0 -88 41.5 -144t167.5 -118l247 -121q179 -87 248.5 -183.5t69.5 -228.5q0 -113 -57 -213q57 -96 57 -219 q0 -87 -28 -158.5t-86 -128t-156.5 -87.5t-229.5 -31q-123 0 -252 13.5t-182 26.5v156q234 -26 424 -26q174 0 241.5 57t67.5 178q0 49 -6 78t-29 64.5t-71 69t-129 75.5l-258 133q-148 76 -212.5 169t-64.5 224zM354 797q0 -65 4.5 -98t27.5 -64t56.5 -51.5t104.5 -55.5 l254 -127q33 -16 157 -98v51q0 40 -2 65t-9.5 52t-20.5 45t-36.5 39.5t-56.5 41t-81 42.5l-248 121q-25 12 -44 23t-36.5 23t-24.5 16.5t-25 19t-20 16.5v-61z" />
<glyph unicode="&#xa8;" horiz-adv-x="935" d="M152 1317v242h167v-242h-167zM621 1317v242h165v-242h-165z" />
<glyph unicode="&#xa9;" horiz-adv-x="1730" d="M145 772q0 172 53.5 313t148.5 235t226.5 145t286.5 51q156 0 287 -51t225.5 -145.5t147.5 -235t53 -312.5q0 -174 -53 -315t-147.5 -235t-225.5 -144.5t-287 -50.5q-155 0 -286.5 50.5t-226.5 144.5t-148.5 235.5t-53.5 314.5zM297 772q0 -282 155 -446t408 -164 t409 164t156 446q0 279 -156 442.5t-409 163.5q-252 0 -407.5 -163.5t-155.5 -442.5zM502 709v127q0 185 94.5 278.5t275.5 93.5q158 0 230 -20v-131q-120 14 -221 14q-124 0 -168.5 -51.5t-44.5 -183.5v-127q0 -131 45 -184.5t168 -53.5q101 0 221 14v-131 q-72 -20 -230 -20q-180 0 -275 96.5t-95 278.5z" />
<glyph unicode="&#xaa;" horiz-adv-x="886" d="M117 1071v21q0 46 12 81.5t36.5 58t53.5 37t72 22t82.5 10t93.5 2.5h102v38q0 83 -31 109.5t-135 26.5q-81 0 -235 -15v97q116 32 258 32q91 0 149 -15t90 -48t44 -76.5t12 -110.5v-452h-143v49q-102 -66 -240 -66q-101 0 -161 49.5t-60 149.5zM264 1067q0 -50 29 -65 t88 -15q52 0 107 17t83 34v166h-104q-118 0 -160.5 -20t-42.5 -90v-27z" />
<glyph unicode="&#xab;" horiz-adv-x="1384" d="M115 592l334 422h217l-324 -422l324 -426h-217zM717 592l334 422h217l-324 -422l324 -426h-217z" />
<glyph unicode="&#xac;" horiz-adv-x="1437" d="M260 950v154h916v-604h-154v450h-762z" />
<glyph unicode="&#xad;" horiz-adv-x="811" d="M152 522v154h505v-154h-505z" />
<glyph unicode="&#xae;" horiz-adv-x="1396" d="M145 975q0 264 148.5 421.5t400.5 157.5t400.5 -157.5t148.5 -421.5q0 -263 -149 -421.5t-400 -158.5t-400 158.5t-149 421.5zM268 975q0 -221 113 -344t313 -123q199 0 311.5 123.5t112.5 343.5q0 218 -113 341.5t-311 123.5q-200 0 -313 -123.5t-113 -341.5zM471 666 v657q74 2 178 2q53 0 93.5 -4.5t78.5 -17.5t62.5 -34.5t39.5 -57.5t15 -85v-6q0 -147 -131 -188l182 -266h-155l-164 243h-35h-35v-243h-129zM600 1010h51q82 0 119 23.5t37 86.5v6q0 61 -35.5 78t-122.5 17h-49v-211z" />
<glyph unicode="&#xaf;" horiz-adv-x="1175" d="M-12 1677v121h1198v-121h-1198z" />
<glyph unicode="&#xb0;" horiz-adv-x="929" d="M111 1190q0 148 103 251t251 103t252 -103t104 -251q0 -147 -104 -249.5t-252 -102.5t-251 102t-103 250zM262 1190q0 -88 58.5 -146.5t142.5 -58.5q86 0 144.5 58.5t58.5 146.5q0 90 -58.5 147.5t-144.5 57.5q-85 0 -143 -58t-58 -147z" />
<glyph unicode="&#xb1;" horiz-adv-x="1437" d="M205 786v150h440v440h150v-440h436v-150h-436v-440h-150v440h-440zM211 0v152h1012v-152h-1012z" />
<glyph unicode="&#xb2;" horiz-adv-x="911" d="M125 680v115q0 105 30.5 174.5t91.5 118t177 104.5q66 32 103.5 54t57.5 44t25.5 40.5t5.5 49.5q0 58 -43.5 82.5t-146.5 24.5q-70 0 -287 -17v111q36 9 129.5 20t175.5 11q172 0 256 -54.5t84 -173.5q0 -94 -56.5 -158t-203.5 -136q-149 -73 -191 -121.5t-42 -145.5v-12 h481v-131h-647z" />
<glyph unicode="&#xb3;" horiz-adv-x="905" d="M131 692v113q217 -17 277 -17q108 0 155 31t47 119q0 40 -5 65t-20.5 46.5t-47.5 31t-84 9.5h-279v122h281q50 0 82.5 10.5t47.5 32.5t20 45.5t5 59.5q0 70 -42.5 97.5t-159.5 27.5q-60 0 -277 -17v113q30 8 120.5 19.5t168.5 11.5q183 0 270.5 -55.5t87.5 -188.5 q0 -160 -116 -217q116 -53 116 -217q0 -145 -89 -208.5t-269 -63.5q-78 0 -169 11t-120 19z" />
<glyph unicode="&#xb4;" horiz-adv-x="935" d="M309 1262l269 315h223l-307 -315h-185z" />
<glyph unicode="&#xb5;" horiz-adv-x="1320" d="M205 -430v1556h182v-718q0 -159 38 -219t153 -60q125 0 352 100v897h184v-1126h-184v88q-231 -117 -391 -117q-86 0 -150 25v-426h-184z" />
<glyph unicode="&#xb6;" horiz-adv-x="1507" d="M139 1014v20q0 87 17 157t46.5 120.5t76 88t99.5 61t123.5 37.5t141.5 19t160 5h536v-1928h-172v1770h-116v-1770h-172v932h-95q-119 0 -211.5 12.5t-176 45.5t-138.5 87t-87 140.5t-32 202.5z" />
<glyph unicode="&#xb7;" horiz-adv-x="569" d="M193 614v283h186v-283h-186z" />
<glyph unicode="&#xb8;" horiz-adv-x="935" d="M150 -430l237 291h229l-278 -291h-188z" />
<glyph unicode="&#xb9;" horiz-adv-x="880" d="M154 1374v137l262 88h121v-792l213 -6v-121h-594v121l213 6v635z" />
<glyph unicode="&#xba;" horiz-adv-x="897" d="M117 1198v68q0 160 85 242.5t247 82.5t246.5 -82t84.5 -243v-68q0 -160 -85 -244t-246 -84t-246.5 84t-85.5 244zM268 1198q0 -107 42.5 -154t138.5 -47q95 0 137.5 47t42.5 154v68q0 107 -42 153.5t-138 46.5q-95 0 -138 -47t-43 -153v-68z" />
<glyph unicode="&#xbb;" horiz-adv-x="1384" d="M115 166l325 426l-325 422h217l336 -422l-336 -426h-217zM719 166l323 426l-323 422h217l334 -422l-334 -426h-217z" />
<glyph unicode="&#xbc;" horiz-adv-x="1931" d="M139 1309v137l262 88h121v-793l213 -6v-121h-594v121l213 6v635zM459 0l968 1522h185l-969 -1522h-184zM1042 225v135l467 553h162v-563h144v-125h-144v-225h-168v225h-461zM1196 350h311v371z" />
<glyph unicode="&#xbd;" horiz-adv-x="2117" d="M139 1309v137l262 88h121v-793l213 -6v-121h-594v121l213 6v635zM459 0l968 1522h185l-969 -1522h-184zM1362 0v115q0 79 15 135t53 102t91 81t140 77t128 71.5t52.5 53.5t11.5 65q0 58 -43.5 82.5t-146.5 24.5q-83 0 -287 -16v110q36 9 129.5 20t175.5 11 q173 0 256.5 -54.5t83.5 -172.5q0 -95 -56.5 -160.5t-203.5 -136.5q-104 -51 -150.5 -85.5t-64.5 -73.5t-18 -106v-12h481v-131h-647z" />
<glyph unicode="&#xbe;" horiz-adv-x="2025" d="M131 627v112q204 -16 277 -16q108 0 155 30.5t47 118.5q0 40 -5 65t-20.5 46.5t-47.5 31t-84 9.5h-279v123h281q50 0 82.5 10.5t47.5 32.5t20 45t5 59q0 70 -42.5 97.5t-159.5 27.5q-73 0 -277 -16v113q29 8 120 19t169 11q183 0 270.5 -55.5t87.5 -187.5 q0 -161 -116 -218q116 -53 116 -217q0 -145 -89 -208.5t-269 -63.5q-78 0 -168.5 11.5t-120.5 19.5zM475 0l971 1522h184l-971 -1522h-184zM1122 225v135l467 553h162v-563h143v-125h-143v-225h-168v225h-461zM1276 350h311v371z" />
<glyph unicode="&#xbf;" horiz-adv-x="966" d="M139 -135q0 101 46.5 190t166.5 209q70 71 108.5 117t58 90.5t24 78.5t4.5 95v86h180v-86q0 -72 -6.5 -120t-27 -103t-61.5 -109t-108 -120q-116 -113 -155 -180.5t-39 -147.5v-17q0 -99 61 -135.5t193 -36.5q90 0 321 25v-139q-174 -47 -338 -47q-212 0 -320 78.5 t-108 254.5v17zM543 844v282h184v-282h-184z" />
<glyph unicode="&#xc0;" horiz-adv-x="1357" d="M51 0l498 1522h260l498 -1522h-201l-158 498h-545l-161 -498h-191zM373 1931h223l268 -315h-184zM459 670h432l-143 444q-38 116 -62 250h-20q-31 -157 -62 -250z" />
<glyph unicode="&#xc1;" horiz-adv-x="1357" d="M51 0l498 1522h260l498 -1522h-201l-158 498h-545l-161 -498h-191zM459 670h432l-143 444q-38 116 -62 250h-20q-31 -157 -62 -250zM537 1616l268 315h223l-307 -315h-184z" />
<glyph unicode="&#xc2;" horiz-adv-x="1357" d="M51 0l498 1522h260l498 -1522h-201l-158 498h-545l-161 -498h-191zM276 1616l277 315h244l276 -315h-184l-215 215l-213 -215h-185zM459 670h432l-143 444q-38 116 -62 250h-20q-31 -157 -62 -250z" />
<glyph unicode="&#xc3;" horiz-adv-x="1357" d="M51 0l498 1522h260l498 -1522h-201l-158 498h-545l-161 -498h-191zM270 1618v70q0 254 205 254q57 0 101 -18t98 -60l86 -70q72 -59 121 -59q42 0 56.5 29t14.5 94v69h131v-69q0 -124 -45 -189t-153 -65q-102 0 -209 84l-84 67q-36 31 -61 44t-56 13q-41 0 -56.5 -30 t-15.5 -94v-70h-133zM459 670h432l-143 444q-38 116 -62 250h-20q-31 -157 -62 -250z" />
<glyph unicode="&#xc4;" horiz-adv-x="1357" d="M51 0l498 1522h260l498 -1522h-201l-158 498h-545l-161 -498h-191zM358 1657v241h168v-241h-168zM459 670h432l-143 444q-38 116 -62 250h-20q-31 -157 -62 -250zM827 1657v241h166v-241h-166z" />
<glyph unicode="&#xc5;" horiz-adv-x="1357" d="M51 0l498 1522h260l498 -1522h-201l-158 498h-545l-161 -498h-191zM440 1800q0 113 67 168t175 55q106 0 171 -55t65 -168t-65 -168t-171 -55q-108 0 -175 55t-67 168zM459 670h432l-143 444q-38 116 -62 250h-20q-31 -157 -62 -250zM567 1800q0 -112 115 -112 q50 0 81.5 26.5t31.5 85.5q0 113 -113 113q-115 0 -115 -113z" />
<glyph unicode="&#xc6;" horiz-adv-x="1974" d="M72 0l491 1522h1299v-168h-713v-480h672v-169h-672v-539h713v-166h-899v498h-541l-158 -498h-192zM477 666h486v690h-271q-9 -30 -31 -108t-36 -122z" />
<glyph unicode="&#xc7;" horiz-adv-x="1140" d="M113 635v252q0 113 16 205t44.5 159.5t72 119t93.5 84.5t114 53.5t130 29t144 8.5q139 0 352 -35v-153q-235 20 -352 20q-111 0 -188 -24t-132 -80.5t-80.5 -151.5t-25.5 -235v-252q0 -140 25.5 -235.5t80.5 -152.5t132 -81.5t188 -24.5q129 0 352 19v-154 q-213 -35 -352 -35q-91 0 -166.5 12.5t-147 40.5t-124.5 78.5t-93.5 122.5t-61.5 175.5t-21 234.5zM336 -430l237 291h230l-279 -291h-188z" />
<glyph unicode="&#xc8;" horiz-adv-x="1187" d="M174 0v1522h901v-168h-713v-480h670v-169h-670v-539h713v-166h-901zM268 1931h224l268 -315h-185z" />
<glyph unicode="&#xc9;" horiz-adv-x="1187" d="M174 0v1522h901v-168h-713v-480h670v-169h-670v-539h713v-166h-901zM512 1616l268 315h224l-308 -315h-184z" />
<glyph unicode="&#xca;" horiz-adv-x="1187" d="M174 0v1522h901v-168h-713v-480h670v-169h-670v-539h713v-166h-901zM227 1616l277 315h244l276 -315h-184l-215 215l-213 -215h-185z" />
<glyph unicode="&#xcb;" horiz-adv-x="1187" d="M174 0v1522h901v-168h-713v-480h670v-169h-670v-539h713v-166h-901zM309 1657v241h168v-241h-168zM778 1657v241h166v-241h-166z" />
<glyph unicode="&#xcc;" horiz-adv-x="536" d="M-27 1931h224l268 -315h-184zM174 0v1522h188v-1522h-188z" />
<glyph unicode="&#xcd;" horiz-adv-x="536" d="M135 1614l268 315h224l-308 -315h-184zM174 0v1522h188v-1522h-188z" />
<glyph unicode="&#xce;" horiz-adv-x="536" d="M-129 1616l276 315h244l277 -315h-185l-215 215l-213 -215h-184zM174 0v1522h188v-1522h-188z" />
<glyph unicode="&#xcf;" horiz-adv-x="536" d="M-51 1657v241h168v-241h-168zM174 0v1522h188v-1522h-188zM418 1657v241h166v-241h-166z" />
<glyph unicode="&#xd0;" horiz-adv-x="1380" d="M66 707v165h108v650h426q174 0 303.5 -44.5t208.5 -129t117.5 -199.5t38.5 -262v-248q0 -149 -36 -263.5t-114 -200.5t-208 -130.5t-310 -44.5h-426v707h-108zM362 166h222q252 0 372.5 109.5t120.5 363.5v248q0 253 -120 360t-373 107h-222v-482h308v-165h-308v-541z " />
<glyph unicode="&#xd1;" horiz-adv-x="1445" d="M174 0v1522h270l531 -1063q58 -117 123 -260h4q-10 151 -10 333v990h180v-1522h-268l-537 1092q-102 209 -123 258h-4q10 -167 10 -318v-1032h-176zM313 1614v69q0 254 205 254q57 0 101 -17.5t98 -59.5l86 -70q72 -59 121 -59q42 0 56.5 28.5t14.5 93.5v70h131v-70 q0 -124 -45 -189t-153 -65q-102 0 -209 84l-84 68q-36 31 -61 44t-56 13q-41 0 -56.5 -30.5t-15.5 -94.5v-69h-133z" />
<glyph unicode="&#xd2;" horiz-adv-x="1400" d="M113 651v217q0 326 151.5 502t435.5 176t436 -176t152 -502v-217q0 -326 -152 -503t-436 -177q-283 0 -435 177t-152 503zM303 651q0 -267 105.5 -389.5t291.5 -122.5t292 122.5t106 389.5v217q0 267 -106 388.5t-292 121.5t-291.5 -121.5t-105.5 -388.5v-217zM371 1931 h223l268 -315h-184z" />
<glyph unicode="&#xd3;" horiz-adv-x="1400" d="M113 651v217q0 326 151.5 502t435.5 176t436 -176t152 -502v-217q0 -326 -152 -503t-436 -177q-283 0 -435 177t-152 503zM303 651q0 -267 105.5 -389.5t291.5 -122.5t292 122.5t106 389.5v217q0 267 -106 388.5t-292 121.5t-291.5 -121.5t-105.5 -388.5v-217zM543 1616 l268 315h223l-307 -315h-184z" />
<glyph unicode="&#xd4;" horiz-adv-x="1400" d="M113 651v217q0 326 151.5 502t435.5 176t436 -176t152 -502v-217q0 -326 -152 -503t-436 -177q-283 0 -435 177t-152 503zM301 1614l277 315h243l277 -315h-185l-215 215l-213 -215h-184zM303 651q0 -267 105.5 -389.5t291.5 -122.5t292 122.5t106 389.5v217 q0 267 -106 388.5t-292 121.5t-291.5 -121.5t-105.5 -388.5v-217z" />
<glyph unicode="&#xd5;" horiz-adv-x="1400" d="M113 651v217q0 326 151.5 502t435.5 176t436 -176t152 -502v-217q0 -326 -152 -503t-436 -177q-283 0 -435 177t-152 503zM293 1614v69q0 254 205 254q57 0 100.5 -17.5t97.5 -59.5l86 -70q72 -59 121 -59q42 0 57 29t15 93v70h131v-70q0 -124 -45.5 -189t-153.5 -65 q-102 0 -209 84l-84 68q-36 31 -60.5 44t-55.5 13q-41 0 -56.5 -30.5t-15.5 -94.5v-69h-133zM303 651q0 -267 105.5 -389.5t291.5 -122.5t292 122.5t106 389.5v217q0 267 -106 388.5t-292 121.5t-291.5 -121.5t-105.5 -388.5v-217z" />
<glyph unicode="&#xd6;" horiz-adv-x="1400" d="M113 651v217q0 326 151.5 502t435.5 176t436 -176t152 -502v-217q0 -326 -152 -503t-436 -177q-283 0 -435 177t-152 503zM303 651q0 -267 105.5 -389.5t291.5 -122.5t292 122.5t106 389.5v217q0 267 -106 388.5t-292 121.5t-291.5 -121.5t-105.5 -388.5v-217zM383 1659 v242h168v-242h-168zM852 1659v242h166v-242h-166z" />
<glyph unicode="&#xd7;" horiz-adv-x="1437" d="M301 1110l105 104l313 -311l309 311l107 -106l-312 -311l310 -308l-107 -104l-307 307l-311 -311l-105 104l311 314z" />
<glyph unicode="&#xd8;" horiz-adv-x="1400" d="M59 0l156 217q-102 167 -102 434v217q0 326 151.5 502t435.5 176q230 0 379 -121l68 95h194l-155 -217q102 -167 102 -435v-217q0 -326 -152 -503t-436 -177q-236 0 -381 121l-65 -92h-195zM303 651q0 -156 37 -260l633 885q-99 102 -273 102q-186 0 -291.5 -121.5 t-105.5 -388.5v-217zM426 242q100 -103 274 -103q186 0 292 122.5t106 389.5v217q0 156 -37 260z" />
<glyph unicode="&#xd9;" horiz-adv-x="1431" d="M164 633v889h188v-869q0 -281 79.5 -396.5t285.5 -115.5q204 0 284 116t80 396v869h187v-889q0 -330 -138.5 -496t-412.5 -166q-553 0 -553 662zM354 1931h224l268 -315h-184z" />
<glyph unicode="&#xda;" horiz-adv-x="1431" d="M164 633v889h188v-869q0 -281 79.5 -396.5t285.5 -115.5q204 0 284 116t80 396v869h187v-889q0 -330 -138.5 -496t-412.5 -166q-553 0 -553 662zM592 1618l268 315h223l-307 -315h-184z" />
<glyph unicode="&#xdb;" horiz-adv-x="1431" d="M164 633v889h188v-869q0 -281 79.5 -396.5t285.5 -115.5q204 0 284 116t80 396v869h187v-889q0 -330 -138.5 -496t-412.5 -166q-553 0 -553 662zM319 1616l277 315h244l276 -315h-184l-215 215l-213 -215h-185z" />
<glyph unicode="&#xdc;" horiz-adv-x="1431" d="M164 633v889h188v-869q0 -281 79.5 -396.5t285.5 -115.5q204 0 284 116t80 396v869h187v-889q0 -330 -138.5 -496t-412.5 -166q-553 0 -553 662zM395 1657v241h168v-241h-168zM864 1657v241h166v-241h-166z" />
<glyph unicode="&#xdd;" horiz-adv-x="1284" d="M41 1522h207l276 -502q82 -151 117 -242h12q10 27 27 62.5t30 59t35.5 65t30.5 55.5l275 502h192l-508 -920v-602h-186v602zM526 1616l269 315h223l-307 -315h-185z" />
<glyph unicode="&#xde;" horiz-adv-x="1259" d="M174 0v1522h188v-267h201q114 0 199.5 -10t169 -38.5t137 -77t86 -130t33.5 -192.5v-27q0 -112 -32.5 -194t-86 -131.5t-136.5 -79t-169.5 -39.5t-200.5 -10h-201v-326h-188zM362 494h201q93 0 157 6.5t120 24t88.5 49.5t50.5 82.5t18 123.5v27q-1 72 -19.5 122.5t-51 82 t-88.5 49t-119 23.5t-156 6h-201v-596z" />
<glyph unicode="&#xdf;" horiz-adv-x="1282" d="M164 0v1016q0 296 115 446t378 150q235 0 352 -115t117 -305v-23q0 -116 -48.5 -200.5t-145.5 -128.5q108 -43 167.5 -134t59.5 -217v-49q0 -214 -124.5 -334t-383.5 -120q-59 0 -125 6v143q61 -2 119 -2q175 0 254.5 72.5t79.5 236.5v47q0 132 -82.5 200.5t-261.5 68.5 h-109v145h109q170 0 240.5 69.5t70.5 196.5v23q0 126 -64.5 193t-224.5 67q-115 0 -180.5 -39.5t-97 -134.5t-31.5 -262v-1016h-184z" />
<glyph unicode="&#xe0;" horiz-adv-x="1116" d="M102 291v41q0 87 24.5 150t66.5 101t110.5 60t142 29.5t175.5 7.5h167v82q0 77 -9 120t-39 71t-79 37t-137 9q-137 0 -348 -24v131q39 14 144 31.5t219 17.5q93 0 162.5 -11t117 -34.5t78 -54.5t47.5 -78t23 -96.5t6 -118.5v-762h-176v76q-152 -105 -359 -105 q-336 0 -336 320zM219 1577h223l269 -315h-185zM287 276q0 -90 48.5 -125.5t139.5 -35.5q89 0 178 29.5t135 60.5v336h-167q-96 0 -153.5 -7.5t-101.5 -29.5t-61.5 -63.5t-17.5 -108.5v-56z" />
<glyph unicode="&#xe1;" horiz-adv-x="1116" d="M102 291v41q0 87 24.5 150t66.5 101t110.5 60t142 29.5t175.5 7.5h167v82q0 77 -9 120t-39 71t-79 37t-137 9q-137 0 -348 -24v131q39 14 144 31.5t219 17.5q93 0 162.5 -11t117 -34.5t78 -54.5t47.5 -78t23 -96.5t6 -118.5v-762h-176v76q-152 -105 -359 -105 q-336 0 -336 320zM287 276q0 -90 48.5 -125.5t139.5 -35.5q89 0 178 29.5t135 60.5v336h-167q-96 0 -153.5 -7.5t-101.5 -29.5t-61.5 -63.5t-17.5 -108.5v-56zM430 1262l268 315h224l-308 -315h-184z" />
<glyph unicode="&#xe2;" horiz-adv-x="1116" d="M102 291v41q0 87 24.5 150t66.5 101t110.5 60t142 29.5t175.5 7.5h167v82q0 77 -9 120t-39 71t-79 37t-137 9q-137 0 -348 -24v131q39 14 144 31.5t219 17.5q93 0 162.5 -11t117 -34.5t78 -54.5t47.5 -78t23 -96.5t6 -118.5v-762h-176v76q-152 -105 -359 -105 q-336 0 -336 320zM164 1262l276 315h244l277 -315h-185l-215 215l-213 -215h-184zM287 276q0 -90 48.5 -125.5t139.5 -35.5q89 0 178 29.5t135 60.5v336h-167q-96 0 -153.5 -7.5t-101.5 -29.5t-61.5 -63.5t-17.5 -108.5v-56z" />
<glyph unicode="&#xe3;" horiz-adv-x="1116" d="M102 291v41q0 87 24.5 150t66.5 101t110.5 60t142 29.5t175.5 7.5h167v82q0 77 -9 120t-39 71t-79 37t-137 9q-137 0 -348 -24v131q39 14 144 31.5t219 17.5q93 0 162.5 -11t117 -34.5t78 -54.5t47.5 -78t23 -96.5t6 -118.5v-762h-176v76q-152 -105 -359 -105 q-336 0 -336 320zM156 1268v69q0 254 204 254q57 0 101 -18t98 -60l86 -69q38 -31 64.5 -45.5t56.5 -14.5q42 0 57 29.5t15 93.5v70h131v-70q0 -124 -45.5 -189t-153.5 -65q-102 0 -209 84l-84 68q-36 31 -61 44t-56 13q-41 0 -56 -30.5t-15 -94.5v-69h-133zM287 276 q0 -90 48.5 -125.5t139.5 -35.5q89 0 178 29.5t135 60.5v336h-167q-96 0 -153.5 -7.5t-101.5 -29.5t-61.5 -63.5t-17.5 -108.5v-56z" />
<glyph unicode="&#xe4;" horiz-adv-x="1116" d="M102 291v41q0 87 24.5 150t66.5 101t110.5 60t142 29.5t175.5 7.5h167v82q0 77 -9 120t-39 71t-79 37t-137 9q-137 0 -348 -24v131q39 14 144 31.5t219 17.5q93 0 162.5 -11t117 -34.5t78 -54.5t47.5 -78t23 -96.5t6 -118.5v-762h-176v76q-152 -105 -359 -105 q-336 0 -336 320zM246 1317v242h168v-242h-168zM287 276q0 -90 48.5 -125.5t139.5 -35.5q89 0 178 29.5t135 60.5v336h-167q-96 0 -153.5 -7.5t-101.5 -29.5t-61.5 -63.5t-17.5 -108.5v-56zM715 1317v242h166v-242h-166z" />
<glyph unicode="&#xe5;" horiz-adv-x="1116" d="M102 291v41q0 87 24.5 150t66.5 101t110.5 60t142 29.5t175.5 7.5h167v82q0 77 -9 120t-39 71t-79 37t-137 9q-137 0 -348 -24v131q39 14 144 31.5t219 17.5q93 0 162.5 -11t117 -34.5t78 -54.5t47.5 -78t23 -96.5t6 -118.5v-762h-176v76q-152 -105 -359 -105 q-336 0 -336 320zM287 276q0 -90 48.5 -125.5t139.5 -35.5q89 0 178 29.5t135 60.5v336h-167q-96 0 -153.5 -7.5t-101.5 -29.5t-61.5 -63.5t-17.5 -108.5v-56zM344 1454q0 113 67 168t175 55q106 0 170.5 -55t64.5 -168t-64.5 -168t-170.5 -55q-108 0 -175 55t-67 168z M471 1454q0 -113 115 -113q50 0 81 27t31 86q0 113 -112 113q-115 0 -115 -113z" />
<glyph unicode="&#xe6;" horiz-adv-x="1861" d="M102 291v41q0 87 24.5 150t66.5 101t110.5 60t142 29.5t175.5 7.5h167v82q0 77 -9 120t-39 71t-79 37t-137 9q-137 0 -348 -24v131q39 14 144 31.5t219 17.5q169 0 251 -31t125 -96q122 125 353 125q243 0 362 -144t119 -415v-98h-774v-23q0 -68 4.5 -111.5t24 -92.5 t54.5 -77t99 -46.5t156 -18.5q179 0 395 37v-148q-180 -45 -399 -45q-302 0 -420 140q-107 -72 -213 -106t-238 -34q-336 0 -336 320zM287 276q0 -90 48.5 -125.5t139.5 -35.5q89 0 178 29.5t135 60.5v336h-167q-96 0 -153.5 -7.5t-101.5 -29.5t-61.5 -63.5t-17.5 -108.5 v-56zM977 647h584v21q0 48 -5 87.5t-23 86t-48.5 78.5t-86 53.5t-130.5 21.5q-291 0 -291 -327v-21z" />
<glyph unicode="&#xe7;" horiz-adv-x="976" d="M113 479v170q0 247 111.5 376.5t338.5 129.5q195 0 322 -39v-139q-196 20 -295 20q-57 0 -100 -9t-80.5 -32.5t-61.5 -62.5t-37.5 -100t-13.5 -144v-170q0 -103 20 -173t60 -108t90.5 -53.5t122.5 -15.5q90 0 295 21v-140q-127 -39 -322 -39q-226 0 -338 131t-112 377z M219 -430l238 291h229l-278 -291h-189z" />
<glyph unicode="&#xe8;" d="M113 514v86q0 269 120 412t357 143q246 0 364.5 -144.5t118.5 -432.5v-82h-776v-23q0 -47 2.5 -81t10.5 -72t22.5 -64t40 -51.5t61 -40.5t87 -24t116.5 -9q199 0 393 33v-148q-176 -45 -401 -45q-149 0 -249 32.5t-159 103t-83.5 168t-24.5 239.5zM279 1577h223l268 -315 h-184zM299 647h584v21q0 48 -5 87.5t-22.5 86t-47.5 78.5t-85.5 53.5t-130.5 21.5q-293 0 -293 -327v-21z" />
<glyph unicode="&#xe9;" d="M113 514v86q0 269 120 412t357 143q246 0 364.5 -144.5t118.5 -432.5v-82h-776v-23q0 -47 2.5 -81t10.5 -72t22.5 -64t40 -51.5t61 -40.5t87 -24t116.5 -9q199 0 393 33v-148q-176 -45 -401 -45q-149 0 -249 32.5t-159 103t-83.5 168t-24.5 239.5zM299 647h584v21 q0 48 -5 87.5t-22.5 86t-47.5 78.5t-85.5 53.5t-130.5 21.5q-293 0 -293 -327v-21zM492 1262l268 315h223l-307 -315h-184z" />
<glyph unicode="&#xea;" d="M113 514v86q0 269 120 412t357 143q246 0 364.5 -144.5t118.5 -432.5v-82h-776v-23q0 -47 2.5 -81t10.5 -72t22.5 -64t40 -51.5t61 -40.5t87 -24t116.5 -9q199 0 393 33v-148q-176 -45 -401 -45q-149 0 -249 32.5t-159 103t-83.5 168t-24.5 239.5zM203 1262l276 315h244 l276 -315h-184l-215 215l-213 -215h-184zM299 647h584v21q0 48 -5 87.5t-22.5 86t-47.5 78.5t-85.5 53.5t-130.5 21.5q-293 0 -293 -327v-21z" />
<glyph unicode="&#xeb;" d="M113 514v86q0 269 120 412t357 143q246 0 364.5 -144.5t118.5 -432.5v-82h-776v-23q0 -47 2.5 -81t10.5 -72t22.5 -64t40 -51.5t61 -40.5t87 -24t116.5 -9q199 0 393 33v-148q-176 -45 -401 -45q-149 0 -249 32.5t-159 103t-83.5 168t-24.5 239.5zM276 1317v242h168v-242 h-168zM299 647h584v21q0 48 -5 87.5t-22.5 86t-47.5 78.5t-85.5 53.5t-130.5 21.5q-293 0 -293 -327v-21zM745 1317v242h166v-242h-166z" />
<glyph unicode="&#xec;" horiz-adv-x="524" d="M-72 1577h224l268 -315h-184zM170 0v1126h184v-1126h-184z" />
<glyph unicode="&#xed;" horiz-adv-x="524" d="M98 1262l269 315h223l-307 -315h-185zM170 0v1126h184v-1126h-184z" />
<glyph unicode="&#xee;" horiz-adv-x="524" d="M-135 1262l276 315h244l277 -315h-185l-215 215l-213 -215h-184zM170 0v1126h184v-1126h-184z" />
<glyph unicode="&#xef;" horiz-adv-x="524" d="M-53 1317v242h168v-242h-168zM170 0v1126h184v-1126h-184zM416 1317v242h166v-242h-166z" />
<glyph unicode="&#xf0;" d="M113 483v138q0 251 121.5 380t357.5 129q136 0 233 -57q-74 200 -239 289l-275 -178l-73 98l206 141q-131 31 -247 31q-27 0 -47 -2v147q34 3 57 3q219 0 391 -68l164 104l76 -96l-109 -76q344 -226 344 -845v-138q0 -250 -122 -380t-359 -130q-236 0 -357.5 130 t-121.5 380zM297 483q0 -185 70 -267.5t225 -82.5q156 0 226.5 82t70.5 268v138q0 187 -70.5 269.5t-226.5 82.5q-154 0 -224.5 -83t-70.5 -269v-138z" />
<glyph unicode="&#xf1;" horiz-adv-x="1220" d="M158 0v1126h182v-88q111 57 199.5 87t175.5 30q88 0 151 -20t102 -54t61 -91t30 -120t8 -151v-719h-184v719q0 159 -37.5 218.5t-151.5 59.5q-127 0 -354 -100v-897h-182zM201 1268v69q0 254 205 254q57 0 100.5 -17.5t97.5 -60.5l86 -69q38 -31 64.5 -45.5t56.5 -14.5 q42 0 57 29.5t15 93.5v70h131v-70q0 -124 -45.5 -189t-153.5 -65q-102 0 -209 84l-84 68q-36 31 -60.5 44t-55.5 13q-41 0 -56.5 -30.5t-15.5 -94.5v-69h-133z" />
<glyph unicode="&#xf2;" d="M113 481v164q0 247 122 378.5t357 131.5q236 0 358.5 -131t122.5 -379v-164q0 -248 -122.5 -379t-358.5 -131q-235 0 -357 131.5t-122 378.5zM262 1577h223l269 -315h-185zM297 481q0 -183 70.5 -265.5t224.5 -82.5q155 0 226 82.5t71 265.5v164q0 183 -71 265.5 t-226 82.5q-153 0 -224 -83t-71 -265v-164z" />
<glyph unicode="&#xf3;" d="M113 481v164q0 247 122 378.5t357 131.5q236 0 358.5 -131t122.5 -379v-164q0 -248 -122.5 -379t-358.5 -131q-235 0 -357 131.5t-122 378.5zM297 481q0 -183 70.5 -265.5t224.5 -82.5q155 0 226 82.5t71 265.5v164q0 183 -71 265.5t-226 82.5q-153 0 -224 -83t-71 -265 v-164zM453 1262l268 315h223l-307 -315h-184z" />
<glyph unicode="&#xf4;" d="M113 481v164q0 247 122 378.5t357 131.5q236 0 358.5 -131t122.5 -379v-164q0 -248 -122.5 -379t-358.5 -131q-235 0 -357 131.5t-122 378.5zM195 1262l276 315h244l276 -315h-184l-215 215l-213 -215h-184zM297 481q0 -183 70.5 -265.5t224.5 -82.5q155 0 226 82.5 t71 265.5v164q0 183 -71 265.5t-226 82.5q-153 0 -224 -83t-71 -265v-164z" />
<glyph unicode="&#xf5;" d="M113 481v164q0 247 122 378.5t357 131.5q236 0 358.5 -131t122.5 -379v-164q0 -248 -122.5 -379t-358.5 -131q-235 0 -357 131.5t-122 378.5zM186 1268v69q0 254 205 254q57 0 101 -18t98 -60l86 -69q38 -31 64.5 -45.5t56.5 -14.5q42 0 56.5 29t14.5 94v70h131v-70 q0 -124 -45 -189t-153 -65q-102 0 -209 84l-84 68q-36 31 -61 44t-56 13q-41 0 -56.5 -30.5t-15.5 -94.5v-69h-133zM297 481q0 -183 70.5 -265.5t224.5 -82.5q155 0 226 82.5t71 265.5v164q0 183 -71 265.5t-226 82.5q-153 0 -224 -83t-71 -265v-164z" />
<glyph unicode="&#xf6;" d="M113 481v164q0 247 122 378.5t357 131.5q236 0 358.5 -131t122.5 -379v-164q0 -248 -122.5 -379t-358.5 -131q-235 0 -357 131.5t-122 378.5zM274 1317v242h168v-242h-168zM297 481q0 -183 70.5 -265.5t224.5 -82.5q155 0 226 82.5t71 265.5v164q0 183 -71 265.5 t-226 82.5q-153 0 -224 -83t-71 -265v-164zM743 1317v242h166v-242h-166z" />
<glyph unicode="&#xf7;" horiz-adv-x="1437" d="M229 725v152h977v-152h-977zM625 240v274h188v-274h-188zM625 1081v273h188v-273h-188z" />
<glyph unicode="&#xf8;" d="M47 -49l150 196q-84 128 -84 334v164q0 248 121.5 379t357.5 131q185 0 307 -86l82 107h190l-170 -222q72 -126 72 -309v-164q0 -248 -122.5 -379t-358.5 -131q-170 0 -285 70l-69 -90h-191zM297 481q0 -107 20 -174l478 625q-70 61 -203 61q-154 0 -224.5 -82.5 t-70.5 -265.5v-164zM410 178q68 -45 182 -45q154 0 225.5 83t71.5 265v164q0 64 -15 141z" />
<glyph unicode="&#xf9;" horiz-adv-x="1220" d="M154 408v718h182v-718q0 -160 37.5 -219.5t152.5 -59.5q126 0 353 100v897h184v-1126h-184v88q-231 -117 -392 -117q-81 0 -141.5 22.5t-96.5 60t-58 95.5t-29.5 119t-7.5 140zM256 1577h223l269 -315h-185z" />
<glyph unicode="&#xfa;" horiz-adv-x="1220" d="M154 408v718h182v-718q0 -160 37.5 -219.5t152.5 -59.5q126 0 353 100v897h184v-1126h-184v88q-231 -117 -392 -117q-81 0 -141.5 22.5t-96.5 60t-58 95.5t-29.5 119t-7.5 140zM500 1262l268 315h223l-307 -315h-184z" />
<glyph unicode="&#xfb;" horiz-adv-x="1220" d="M154 408v718h182v-718q0 -160 37.5 -219.5t152.5 -59.5q126 0 353 100v897h184v-1126h-184v88q-231 -117 -392 -117q-81 0 -141.5 22.5t-96.5 60t-58 95.5t-29.5 119t-7.5 140zM215 1262l277 315h243l277 -315h-185l-215 215l-213 -215h-184z" />
<glyph unicode="&#xfc;" horiz-adv-x="1220" d="M154 408v718h182v-718q0 -160 37.5 -219.5t152.5 -59.5q126 0 353 100v897h184v-1126h-184v88q-231 -117 -392 -117q-81 0 -141.5 22.5t-96.5 60t-58 95.5t-29.5 119t-7.5 140zM295 1317v242h168v-242h-168zM764 1317v242h166v-242h-166z" />
<glyph unicode="&#xfd;" horiz-adv-x="1120" d="M47 -295q117 -8 213 -8q79 0 116.5 44.5t86.5 176.5l31 82l-437 1126h203l229 -632q43 -122 91 -299h4q38 158 86 301l207 630h196l-428 -1226q-26 -74 -47 -121.5t-52.5 -96.5t-68.5 -76.5t-90 -45t-121 -17.5q-117 0 -219 21v141zM455 1262l268 315h223l-307 -315h-184 z" />
<glyph unicode="&#xfe;" horiz-adv-x="1181" d="M158 -430v2015h182v-532q154 102 313 102q203 0 309.5 -122.5t106.5 -373.5v-172q0 -514 -475 -514q-96 0 -254 31v-434h-182zM340 158q167 -29 252 -29q72 0 123 15.5t91.5 54.5t60.5 110.5t20 177.5v172q0 175 -62.5 254.5t-191.5 79.5q-68 0 -132 -18t-161 -66v-751z " />
<glyph unicode="&#xff;" horiz-adv-x="1120" d="M47 -295q117 -8 213 -8q79 0 116.5 44.5t86.5 176.5l31 82l-437 1126h203l229 -632q43 -122 91 -299h4q38 158 86 301l207 630h196l-428 -1226q-26 -74 -47 -121.5t-52.5 -96.5t-68.5 -76.5t-90 -45t-121 -17.5q-117 0 -219 21v141zM266 1317v242h168v-242h-168z M735 1317v242h166v-242h-166z" />
<glyph unicode="&#x100;" horiz-adv-x="1357" d="M51 0l498 1522h260l498 -1522h-201l-158 498h-545l-161 -498h-191zM328 1688v143h702v-143h-702zM459 670h432l-143 444q-38 116 -62 250h-20q-31 -157 -62 -250z" />
<glyph unicode="&#x101;" horiz-adv-x="1116" d="M102 291v41q0 87 24.5 150t66.5 101t110.5 60t142 29.5t175.5 7.5h167v82q0 77 -9 120t-39 71t-79 37t-137 9q-137 0 -348 -24v131q39 14 144 31.5t219 17.5q93 0 162.5 -11t117 -34.5t78 -54.5t47.5 -78t23 -96.5t6 -118.5v-762h-176v76q-152 -105 -359 -105 q-336 0 -336 320zM211 1341v144h702v-144h-702zM287 276q0 -90 48.5 -125.5t139.5 -35.5q89 0 178 29.5t135 60.5v336h-167q-96 0 -153.5 -7.5t-101.5 -29.5t-61.5 -63.5t-17.5 -108.5v-56z" />
<glyph unicode="&#x102;" horiz-adv-x="1357" d="M51 0l498 1522h260l498 -1522h-201l-158 498h-545l-161 -498h-191zM334 1933h137q10 -106 59.5 -150t147.5 -44q99 0 148 43.5t61 150.5h137q-25 -317 -346 -317q-322 0 -344 317zM459 670h432l-143 444q-38 116 -62 250h-20q-31 -157 -62 -250z" />
<glyph unicode="&#x103;" horiz-adv-x="1116" d="M102 291v41q0 87 24.5 150t66.5 101t110.5 60t142 29.5t175.5 7.5h167v82q0 77 -9 120t-39 71t-79 37t-137 9q-137 0 -348 -24v131q39 14 144 31.5t219 17.5q93 0 162.5 -11t117 -34.5t78 -54.5t47.5 -78t23 -96.5t6 -118.5v-762h-176v76q-152 -105 -359 -105 q-336 0 -336 320zM231 1579h138q10 -106 59 -150.5t147 -44.5q99 0 148 44t61 151h138q-25 -317 -347 -317t-344 317zM287 276q0 -90 48.5 -125.5t139.5 -35.5q89 0 178 29.5t135 60.5v336h-167q-96 0 -153.5 -7.5t-101.5 -29.5t-61.5 -63.5t-17.5 -108.5v-56z" />
<glyph unicode="&#x104;" horiz-adv-x="1357" d="M51 0l498 1522h260l498 -1522q-168 -77 -223.5 -130t-55.5 -103q0 -95 121 -95q7 0 158 11v-107q-57 -20 -174 -20q-127 0 -194 53.5t-67 148.5q0 69 60 137.5t168 120.5l-152 482h-545l-161 -498h-191zM459 670h432l-143 444q-38 116 -62 250h-20q-31 -157 -62 -250z " />
<glyph unicode="&#x105;" horiz-adv-x="1116" d="M102 291v41q0 87 24.5 150t66.5 101t110.5 60t142 29.5t175.5 7.5h167v82q0 77 -9 120t-39 71t-79 37t-137 9q-137 0 -348 -24v131q39 14 144 31.5t219 17.5q93 0 162.5 -11t117 -34.5t78 -54.5t47.5 -78t23 -96.5t6 -118.5v-762q-168 -77 -223.5 -130t-55.5 -103 q0 -95 121 -95q7 0 158 11v-107q-57 -20 -174 -20q-127 0 -193.5 53.5t-66.5 148.5q0 43 19 79t58.5 66t79.5 52t101 49v88q-175 -121 -359 -121q-336 0 -336 320zM287 276q0 -90 48.5 -125.5t139.5 -35.5q87 0 172 34.5t141 71.5v320h-167q-96 0 -153.5 -7.5t-101.5 -29.5 t-61.5 -63.5t-17.5 -108.5v-56z" />
<glyph unicode="&#x106;" horiz-adv-x="1140" d="M113 635v252q0 113 16 205t44.5 159.5t72 119t93.5 84.5t114 53.5t130 29t144 8.5q139 0 352 -35v-153q-235 20 -352 20q-111 0 -188 -24t-132 -80.5t-80.5 -151.5t-25.5 -235v-252q0 -140 25.5 -235.5t80.5 -152.5t132 -81.5t188 -24.5q129 0 352 19v-154 q-213 -35 -352 -35q-91 0 -166.5 12.5t-147 40.5t-124.5 78.5t-93.5 122.5t-61.5 175.5t-21 234.5zM563 1616l268 315h224l-307 -315h-185z" />
<glyph unicode="&#x107;" horiz-adv-x="976" d="M113 479v170q0 247 111.5 376.5t338.5 129.5q195 0 322 -39v-139q-196 20 -295 20q-57 0 -100 -9t-80.5 -32.5t-61.5 -62.5t-37.5 -100t-13.5 -144v-170q0 -103 20 -173t60 -108t90.5 -53.5t122.5 -15.5q90 0 295 21v-140q-127 -39 -322 -39q-226 0 -338 131t-112 377z M453 1262l268 315h223l-307 -315h-184z" />
<glyph unicode="&#x108;" horiz-adv-x="1140" d="M113 635v252q0 113 16 205t44.5 159.5t72 119t93.5 84.5t114 53.5t130 29t144 8.5q139 0 352 -35v-153q-235 20 -352 20q-111 0 -188 -24t-132 -80.5t-80.5 -151.5t-25.5 -235v-252q0 -140 25.5 -235.5t80.5 -152.5t132 -81.5t188 -24.5q129 0 352 19v-154 q-213 -35 -352 -35q-91 0 -166.5 12.5t-147 40.5t-124.5 78.5t-93.5 122.5t-61.5 175.5t-21 234.5zM252 1616l276 315h244l277 -315h-185l-215 215l-213 -215h-184z" />
<glyph unicode="&#x109;" horiz-adv-x="976" d="M113 479v170q0 247 111.5 376.5t338.5 129.5q195 0 322 -39v-139q-196 20 -295 20q-57 0 -100 -9t-80.5 -32.5t-61.5 -62.5t-37.5 -100t-13.5 -144v-170q0 -103 20 -173t60 -108t90.5 -53.5t122.5 -15.5q90 0 295 21v-140q-127 -39 -322 -39q-226 0 -338 131t-112 377z M154 1262l276 315h244l276 -315h-184l-215 215l-213 -215h-184z" />
<glyph unicode="&#x10a;" horiz-adv-x="1140" d="M113 635v252q0 113 16 205t44.5 159.5t72 119t93.5 84.5t114 53.5t130 29t144 8.5q139 0 352 -35v-153q-235 20 -352 20q-111 0 -188 -24t-132 -80.5t-80.5 -151.5t-25.5 -235v-252q0 -140 25.5 -235.5t80.5 -152.5t132 -81.5t188 -24.5q129 0 352 19v-154 q-213 -35 -352 -35q-91 0 -166.5 12.5t-147 40.5t-124.5 78.5t-93.5 122.5t-61.5 175.5t-21 234.5zM594 1657v246h182v-246h-182z" />
<glyph unicode="&#x10b;" horiz-adv-x="976" d="M113 479v170q0 247 111.5 376.5t338.5 129.5q195 0 322 -39v-139q-196 20 -295 20q-57 0 -100 -9t-80.5 -32.5t-61.5 -62.5t-37.5 -100t-13.5 -144v-170q0 -103 20 -173t60 -108t90.5 -53.5t122.5 -15.5q90 0 295 21v-140q-127 -39 -322 -39q-226 0 -338 131t-112 377z M489 1333v246h183v-246h-183z" />
<glyph unicode="&#x10c;" horiz-adv-x="1140" d="M113 635v252q0 113 16 205t44.5 159.5t72 119t93.5 84.5t114 53.5t130 29t144 8.5q139 0 352 -35v-153q-235 20 -352 20q-111 0 -188 -24t-132 -80.5t-80.5 -151.5t-25.5 -235v-252q0 -140 25.5 -235.5t80.5 -152.5t132 -81.5t188 -24.5q129 0 352 19v-154 q-213 -35 -352 -35q-91 0 -166.5 12.5t-147 40.5t-124.5 78.5t-93.5 122.5t-61.5 175.5t-21 234.5zM287 1931h184l213 -217l215 217h184l-276 -315h-244z" />
<glyph unicode="&#x10d;" horiz-adv-x="976" d="M113 479v170q0 247 111.5 376.5t338.5 129.5q195 0 322 -39v-139q-196 20 -295 20q-57 0 -100 -9t-80.5 -32.5t-61.5 -62.5t-37.5 -100t-13.5 -144v-170q0 -103 20 -173t60 -108t90.5 -53.5t122.5 -15.5q90 0 295 21v-140q-127 -39 -322 -39q-226 0 -338 131t-112 377z M160 1577h184l213 -217l215 217h184l-276 -315h-244z" />
<glyph unicode="&#x10e;" horiz-adv-x="1380" d="M174 0v1522h426q174 0 303.5 -44.5t208.5 -129t117.5 -199.5t38.5 -262v-248q0 -149 -36 -263.5t-114 -200.5t-208 -130.5t-310 -44.5h-426zM291 1929h184l213 -217l215 217h184l-276 -315h-244zM362 166h222q252 0 372.5 109.5t120.5 363.5v248q0 253 -120 360t-373 107 h-222v-1188z" />
<glyph unicode="&#x10f;" horiz-adv-x="1415" d="M113 453v194q0 99 16 177.5t46.5 133.5t71.5 94t94.5 61t111 32t125.5 10q119 0 264 -29v459h184v-1585h-178v57q-145 -86 -316 -86q-203 0 -311 119t-108 363zM297 453q0 -168 64.5 -246t205.5 -78q132 0 275 70v774q-149 26 -252 26q-59 0 -101 -7.5t-80.5 -29.5 t-61.5 -61t-36.5 -102t-13.5 -152v-194zM1163 1116l99 469h194l-151 -469h-142z" />
<glyph unicode="&#x110;" horiz-adv-x="1380" d="M66 707v165h108v650h426q174 0 303.5 -44.5t208.5 -129t117.5 -199.5t38.5 -262v-248q0 -149 -36 -263.5t-114 -200.5t-208 -130.5t-310 -44.5h-426v707h-108zM362 166h222q252 0 372.5 109.5t120.5 363.5v248q0 253 -120 360t-373 107h-222v-482h308v-165h-308v-541z " />
<glyph unicode="&#x111;" horiz-adv-x="1200" d="M113 453v194q0 99 16 177.5t46.5 133.5t71.5 94t94.5 61t111 32t125.5 10q119 0 264 -29v158h-350v160h350v141h184v-141h123v-160h-123v-1284h-178v57q-145 -86 -316 -86q-203 0 -311 119t-108 363zM297 453q0 -168 64.5 -246t205.5 -78q132 0 275 70v774 q-149 26 -252 26q-59 0 -101 -7.5t-80.5 -29.5t-61.5 -61t-36.5 -102t-13.5 -152v-194z" />
<glyph unicode="&#x112;" horiz-adv-x="1187" d="M174 0v1522h901v-168h-713v-480h670v-169h-670v-539h713v-166h-901zM281 1688v143h702v-143h-702z" />
<glyph unicode="&#x113;" d="M113 514v86q0 269 120 412t357 143q246 0 364.5 -144.5t118.5 -432.5v-82h-776v-23q0 -47 2.5 -81t10.5 -72t22.5 -64t40 -51.5t61 -40.5t87 -24t116.5 -9q199 0 393 33v-148q-176 -45 -401 -45q-149 0 -249 32.5t-159 103t-83.5 168t-24.5 239.5zM236 1341v144h702v-144 h-702zM299 647h584v21q0 48 -5 87.5t-22.5 86t-47.5 78.5t-85.5 53.5t-130.5 21.5q-293 0 -293 -327v-21z" />
<glyph unicode="&#x114;" horiz-adv-x="1187" d="M174 0v1522h901v-168h-713v-480h670v-169h-670v-539h713v-166h-901zM293 1933h137q10 -106 59.5 -150t147.5 -44q99 0 148 43.5t61 150.5h137q-25 -317 -346 -317q-322 0 -344 317z" />
<glyph unicode="&#x115;" d="M113 514v86q0 269 120 412t357 143q246 0 364.5 -144.5t118.5 -432.5v-82h-776v-23q0 -47 2.5 -81t10.5 -72t22.5 -64t40 -51.5t61 -40.5t87 -24t116.5 -9q199 0 393 33v-148q-176 -45 -401 -45q-149 0 -249 32.5t-159 103t-83.5 168t-24.5 239.5zM250 1577h137 q10 -106 59.5 -150.5t147.5 -44.5q99 0 148 44t61 151h137q-25 -317 -346 -317q-322 0 -344 317zM299 647h584v21q0 48 -5 87.5t-22.5 86t-47.5 78.5t-85.5 53.5t-130.5 21.5q-293 0 -293 -327v-21z" />
<glyph unicode="&#x116;" horiz-adv-x="1187" d="M174 0v1522h901v-168h-713v-480h670v-169h-670v-539h713v-166h-901zM535 1657v246h182v-246h-182z" />
<glyph unicode="&#x117;" d="M113 514v86q0 269 120 412t357 143q246 0 364.5 -144.5t118.5 -432.5v-82h-776v-23q0 -47 2.5 -81t10.5 -72t22.5 -64t40 -51.5t61 -40.5t87 -24t116.5 -9q199 0 393 33v-148q-176 -45 -401 -45q-149 0 -249 32.5t-159 103t-83.5 168t-24.5 239.5zM299 647h584v21 q0 48 -5 87.5t-22.5 86t-47.5 78.5t-85.5 53.5t-130.5 21.5q-293 0 -293 -327v-21zM496 1333v246h182v-246h-182z" />
<glyph unicode="&#x118;" horiz-adv-x="1187" d="M174 0v1522h901v-168h-713v-480h670v-169h-670v-539h713v-166q-88 -41 -146.5 -76t-85.5 -63.5t-36.5 -49t-9.5 -44.5q0 -95 121 -95q6 0 157 11v-107q-57 -20 -174 -20q-127 0 -193.5 53.5t-66.5 148.5q0 65 51 128t146 114h-664z" />
<glyph unicode="&#x119;" d="M113 514v86q0 269 120 412t357 143q246 0 364.5 -144.5t118.5 -432.5v-82h-776v-23q0 -47 2.5 -81t10.5 -72t22.5 -64t40 -51.5t61 -40.5t87 -24t116.5 -9q199 0 393 33v-148q-71 -38 -120.5 -71.5t-74 -56.5t-38 -48t-15.5 -38.5t-2 -34.5q0 -95 121 -95q7 0 158 11 v-107q-57 -20 -174 -20q-127 0 -193.5 53.5t-66.5 148.5q0 121 141 219q-64 -6 -137 -6q-149 0 -249 32.5t-159 103t-83.5 168t-24.5 239.5zM299 647h584v21q0 48 -5 87.5t-22.5 86t-47.5 78.5t-85.5 53.5t-130.5 21.5q-293 0 -293 -327v-21z" />
<glyph unicode="&#x11a;" horiz-adv-x="1187" d="M174 0v1522h901v-168h-713v-480h670v-169h-670v-539h713v-166h-901zM238 1931h184l213 -217l215 217h184l-276 -315h-244z" />
<glyph unicode="&#x11b;" d="M113 514v86q0 269 120 412t357 143q246 0 364.5 -144.5t118.5 -432.5v-82h-776v-23q0 -47 2.5 -81t10.5 -72t22.5 -64t40 -51.5t61 -40.5t87 -24t116.5 -9q199 0 393 33v-148q-176 -45 -401 -45q-149 0 -249 32.5t-159 103t-83.5 168t-24.5 239.5zM217 1577h184l213 -217 l215 217h185l-277 -315h-243zM299 647h584v21q0 48 -5 87.5t-22.5 86t-47.5 78.5t-85.5 53.5t-130.5 21.5q-293 0 -293 -327v-21z" />
<glyph unicode="&#x11c;" horiz-adv-x="1298" d="M113 627v268q0 155 35 272.5t91 188t137.5 114.5t163 60t179.5 16q222 0 446 -39v-151q-73 6 -216 14t-204 8q-84 0 -145.5 -10t-120.5 -40.5t-95.5 -82.5t-58.5 -140t-22 -210v-268q0 -143 28 -238.5t86.5 -149t135.5 -75t188 -21.5q129 0 236 7v641h188v-777 q-219 -43 -448 -43q-106 0 -193 19.5t-165 66.5t-131 120.5t-84 187.5t-31 262zM287 1616l276 315h244l276 -315h-184l-215 215l-213 -215h-184z" />
<glyph unicode="&#x11d;" horiz-adv-x="1183" d="M113 494v141q0 264 120.5 392t387.5 128q171 0 405 -29v-1189q0 -74 -10.5 -130t-39 -108t-76 -84.5t-125 -52t-183.5 -19.5q-112 0 -240.5 15.5t-173.5 25.5v133q246 -16 414 -16q82 0 133 14t76 46.5t33 71.5t8 104v57q-130 -21 -228 -21q-123 0 -212.5 26.5t-156 86 t-99.5 161.5t-33 247zM201 1262l276 315h244l276 -315h-184l-215 215l-213 -215h-184zM297 494q0 -142 33 -221t100.5 -111.5t185.5 -32.5q57 0 128.5 6.5t97.5 11.5v838q-80 14 -221 14q-184 0 -254 -86t-70 -278v-141z" />
<glyph unicode="&#x11e;" horiz-adv-x="1298" d="M113 627v268q0 155 35 272.5t91 188t137.5 114.5t163 60t179.5 16q222 0 446 -39v-151q-73 6 -216 14t-204 8q-84 0 -145.5 -10t-120.5 -40.5t-95.5 -82.5t-58.5 -140t-22 -210v-268q0 -143 28 -238.5t86.5 -149t135.5 -75t188 -21.5q129 0 236 7v641h188v-777 q-219 -43 -448 -43q-106 0 -193 19.5t-165 66.5t-131 120.5t-84 187.5t-31 262zM365 1931h137q10 -106 59.5 -150t147.5 -44q99 0 148 43.5t61 150.5h137q-25 -317 -346 -317q-322 0 -344 317z" />
<glyph unicode="&#x11f;" horiz-adv-x="1183" d="M113 494v141q0 264 120.5 392t387.5 128q171 0 405 -29v-1189q0 -74 -10.5 -130t-39 -108t-76 -84.5t-125 -52t-183.5 -19.5q-112 0 -240.5 15.5t-173.5 25.5v133q246 -16 414 -16q82 0 133 14t76 46.5t33 71.5t8 104v57q-130 -21 -228 -21q-123 0 -212.5 26.5t-156 86 t-99.5 161.5t-33 247zM254 1577h137q10 -106 59.5 -150.5t147.5 -44.5q99 0 148 44t61 151h137q-25 -317 -346 -317q-322 0 -344 317zM297 494q0 -142 33 -221t100.5 -111.5t185.5 -32.5q57 0 128.5 6.5t97.5 11.5v838q-80 14 -221 14q-184 0 -254 -86t-70 -278v-141z" />
<glyph unicode="&#x120;" horiz-adv-x="1298" d="M113 627v268q0 155 35 272.5t91 188t137.5 114.5t163 60t179.5 16q222 0 446 -39v-151q-73 6 -216 14t-204 8q-84 0 -145.5 -10t-120.5 -40.5t-95.5 -82.5t-58.5 -140t-22 -210v-268q0 -143 28 -238.5t86.5 -149t135.5 -75t188 -21.5q129 0 236 7v641h188v-777 q-219 -43 -448 -43q-106 0 -193 19.5t-165 66.5t-131 120.5t-84 187.5t-31 262zM616 1657v246h183v-246h-183z" />
<glyph unicode="&#x121;" horiz-adv-x="1183" d="M113 494v141q0 264 120.5 392t387.5 128q171 0 405 -29v-1189q0 -74 -10.5 -130t-39 -108t-76 -84.5t-125 -52t-183.5 -19.5q-112 0 -240.5 15.5t-173.5 25.5v133q246 -16 414 -16q82 0 133 14t76 46.5t33 71.5t8 104v57q-130 -21 -228 -21q-123 0 -212.5 26.5t-156 86 t-99.5 161.5t-33 247zM297 494q0 -142 33 -221t100.5 -111.5t185.5 -32.5q57 0 128.5 6.5t97.5 11.5v838q-80 14 -221 14q-184 0 -254 -86t-70 -278v-141zM508 1333v246h182v-246h-182z" />
<glyph unicode="&#x122;" horiz-adv-x="1298" d="M113 627v268q0 155 35 272.5t91 188t137.5 114.5t163 60t179.5 16q222 0 446 -39v-151q-73 6 -216 14t-204 8q-84 0 -145.5 -10t-120.5 -40.5t-95.5 -82.5t-58.5 -140t-22 -210v-268q0 -143 28 -238.5t86.5 -149t135.5 -75t188 -21.5q129 0 236 7v641h188v-777 q-219 -43 -448 -43q-106 0 -193 19.5t-165 66.5t-131 120.5t-84 187.5t-31 262zM473 -430l137 291h213l-182 -291h-168z" />
<glyph unicode="&#x123;" horiz-adv-x="1183" d="M113 494v141q0 264 120.5 392t387.5 128q171 0 405 -29v-1189q0 -74 -10.5 -130t-39 -108t-76 -84.5t-125 -52t-183.5 -19.5q-112 0 -240.5 15.5t-173.5 25.5v133q246 -16 414 -16q82 0 133 14t76 46.5t33 71.5t8 104v57q-130 -21 -228 -21q-123 0 -212.5 26.5t-156 86 t-99.5 161.5t-33 247zM297 494q0 -142 33 -221t100.5 -111.5t185.5 -32.5q57 0 128.5 6.5t97.5 11.5v838q-80 14 -221 14q-184 0 -254 -86t-70 -278v-141zM514 1262l182 290h168l-137 -290h-213z" />
<glyph unicode="&#x124;" horiz-adv-x="1486" d="M174 0v1522h188v-633h762v633h189v-1522h-189v719h-762v-719h-188zM350 1614l277 315h243l277 -315h-184l-215 215l-213 -215h-185z" />
<glyph unicode="&#x125;" horiz-adv-x="1220" d="M158 0v1585h182v-522q179 92 367 92q184 0 272 -107t88 -329v-719h-184v713q0 163 -47 222.5t-166 59.5q-165 0 -330 -80v-915h-182zM209 1616l276 315h244l277 -315h-185l-215 215l-213 -215h-184z" />
<glyph unicode="&#x126;" horiz-adv-x="1486" d="M43 1108v147h131v267h188v-267h762v267h189v-267h133v-147h-133v-1108h-189v719h-762v-719h-188v1108h-131zM362 889h762v219h-762v-219z" />
<glyph unicode="&#x127;" horiz-adv-x="1220" d="M39 1292v152h119v141h184v-141h356v-152h-356v-229q174 92 365 92q185 0 272.5 -107t87.5 -329v-719h-184v713q0 163 -47 222.5t-166 59.5q-163 0 -328 -80v-915h-184v1292h-119z" />
<glyph unicode="&#x128;" horiz-adv-x="536" d="M-141 1616v70q0 253 204 253q57 0 101 -17.5t98 -59.5l86 -70q72 -59 121 -59q42 0 57 29t15 93v70h131v-70q0 -123 -45.5 -188t-153.5 -65q-102 0 -209 84l-84 67q-36 31 -61 44t-56 13q-41 0 -56 -30t-15 -94v-70h-133zM174 0v1522h188v-1522h-188z" />
<glyph unicode="&#x129;" horiz-adv-x="524" d="M-143 1268v69q0 254 204 254q57 0 101 -18t98 -60l86 -69q38 -31 64.5 -45.5t56.5 -14.5q42 0 57 29.5t15 93.5v70h131v-70q0 -124 -45.5 -189t-153.5 -65q-102 0 -209 84l-84 68q-36 31 -61 44t-56 13q-41 0 -56 -30.5t-15 -94.5v-69h-133zM170 0v1126h184v-1126h-184z " />
<glyph unicode="&#x12a;" horiz-adv-x="536" d="M-82 1688v143h703v-143h-703zM174 0v1522h188v-1522h-188z" />
<glyph unicode="&#x12b;" horiz-adv-x="524" d="M-88 1341v144h702v-144h-702zM170 0v1126h184v-1126h-184z" />
<glyph unicode="&#x12c;" horiz-adv-x="536" d="M-76 1933h137q10 -106 59.5 -150t147.5 -44q99 0 148 43.5t61 150.5h137q-25 -317 -346 -317q-322 0 -344 317zM174 0v1522h188v-1522h-188z" />
<glyph unicode="&#x12d;" horiz-adv-x="524" d="M-82 1577h137q10 -106 59.5 -150.5t147.5 -44.5q99 0 148 44t61 151h137q-25 -317 -346 -317q-322 0 -344 317zM170 0v1126h184v-1126h-184z" />
<glyph unicode="&#x12e;" horiz-adv-x="536" d="M35 -242q0 146 139 242v1522h188v-1522q-172 -101 -172 -233q0 -95 123 -95q5 0 156 11v-107q-57 -20 -174 -20q-260 0 -260 202z" />
<glyph unicode="&#x12f;" horiz-adv-x="524" d="M41 -242q0 132 129 248v1120h184v-1126q-157 -120 -157 -233q0 -45 27 -70t93 -25q26 0 51.5 1.5t57 5t49.5 4.5v-107q-58 -20 -174 -20q-127 0 -193.5 53.5t-66.5 148.5zM170 1335v250h186v-250h-186z" />
<glyph unicode="&#x130;" horiz-adv-x="536" d="M174 0v1522h188v-1522h-188zM178 1657v246h182v-246h-182z" />
<glyph unicode="&#x131;" horiz-adv-x="524" d="M170 0v1126h184v-1126h-184z" />
<glyph unicode="&#x132;" horiz-adv-x="1071" d="M174 0v1522h188v-1522h-188zM432 -291h139q48 0 75.5 8t42 30.5t18.5 50.5t4 79v1645h186v-1645q0 -173 -69 -249.5t-244 -76.5q-99 0 -152 17v141z" />
<glyph unicode="&#x133;" horiz-adv-x="1067" d="M174 0v1126h184v-1126h-184zM174 1335v250h186v-250h-186zM471 -311q11 0 52.5 -1t68.5 -1q73 0 95 35.5t22 140.5v1263h184v-1263q0 -180 -62.5 -250t-222.5 -70q-88 0 -137 11v135zM709 1335v250h186v-250h-186z" />
<glyph unicode="&#x134;" horiz-adv-x="534" d="M-131 1616l276 315h244l277 -315h-185l-215 215l-213 -215h-184zM-104 -291h139q48 0 75.5 8t41.5 30.5t18 50.5t4 79v1645h186v-1645q0 -173 -69 -249.5t-244 -76.5q-98 0 -151 17v141z" />
<glyph unicode="&#x135;" horiz-adv-x="524" d="M-135 1262l276 315h244l277 -315h-185l-215 215l-213 -215h-184zM-68 -309q11 0 52.5 -1t68.5 -1q73 0 95 35.5t22 140.5v1261h184v-1261q0 -180 -62 -250t-222 -70q-88 0 -138 11v135z" />
<glyph unicode="&#x136;" horiz-adv-x="1298" d="M184 0v1522h189v-715l653 715h242l-686 -748l686 -774h-258l-637 733v-733h-189zM473 -430l137 291h213l-182 -291h-168z" />
<glyph unicode="&#x137;" horiz-adv-x="1069" d="M158 0v1585h182v-967l453 508h237l-487 -534l495 -592h-243l-455 559v-559h-182zM311 -430l138 291h213l-183 -291h-168z" />
<glyph unicode="&#x138;" horiz-adv-x="1069" d="M158 0v1126h182v-508l453 508h237l-487 -534l495 -592h-243l-455 559v-559h-182z" />
<glyph unicode="&#x139;" horiz-adv-x="1110" d="M174 0v1522h188v-1356h697v-166h-885zM483 1616l269 315h223l-307 -315h-185z" />
<glyph unicode="&#x13a;" horiz-adv-x="522" d="M129 1616l268 315h224l-308 -315h-184zM170 0v1585h182v-1585h-182z" />
<glyph unicode="&#x13b;" horiz-adv-x="1110" d="M174 0v1522h188v-1356h697v-166h-885zM397 -430l138 291h213l-183 -291h-168z" />
<glyph unicode="&#x13c;" horiz-adv-x="522" d="M16 -430l138 291h213l-183 -291h-168zM170 0v1585h182v-1585h-182z" />
<glyph unicode="&#x13d;" horiz-adv-x="1110" d="M174 0v1522h188v-1356h697v-166h-885zM627 1114l98 469h195l-152 -469h-141z" />
<glyph unicode="&#x13e;" horiz-adv-x="753" d="M170 0v1585h182v-1585h-182zM502 1116l98 469h195l-152 -469h-141z" />
<glyph unicode="&#x13f;" horiz-adv-x="1110" d="M174 0v1522h188v-1356h697v-166h-885zM612 713v282h187v-282h-187z" />
<glyph unicode="&#x140;" horiz-adv-x="757" d="M170 0v1585h182v-1585h-182zM530 614v283h187v-283h-187z" />
<glyph unicode="&#x141;" horiz-adv-x="1148" d="M39 408v221l174 166v727h188v-537l213 213v-221l-213 -213v-598h697v-166h-885v578z" />
<glyph unicode="&#x142;" horiz-adv-x="522" d="M39 479v223l131 127v756h184v-569l127 123v-224l-127 -122v-793h-184v606z" />
<glyph unicode="&#x143;" horiz-adv-x="1445" d="M174 0v1522h270l531 -1063q58 -117 123 -260h4q-10 151 -10 333v990h180v-1522h-268l-537 1092q-102 209 -123 258h-4q10 -167 10 -318v-1032h-176zM606 1616l268 315h224l-307 -315h-185z" />
<glyph unicode="&#x144;" horiz-adv-x="1220" d="M158 0v1126h182v-88q111 57 199.5 87t175.5 30q88 0 151 -20t102 -54t61 -91t30 -120t8 -151v-719h-184v719q0 159 -37.5 218.5t-151.5 59.5q-127 0 -354 -100v-897h-182zM504 1262l268 315h223l-307 -315h-184z" />
<glyph unicode="&#x145;" horiz-adv-x="1445" d="M174 0v1522h270l531 -1063q58 -117 123 -260h4q-10 151 -10 333v990h180v-1522h-268l-537 1092q-102 209 -123 258h-4q10 -167 10 -318v-1032h-176zM510 -430l137 291h213l-182 -291h-168z" />
<glyph unicode="&#x146;" horiz-adv-x="1220" d="M158 0v1126h182v-88q111 57 199.5 87t175.5 30q88 0 151 -20t102 -54t61 -91t30 -120t8 -151v-719h-184v719q0 159 -37.5 218.5t-151.5 59.5q-127 0 -354 -100v-897h-182zM373 -430l137 291h213l-182 -291h-168z" />
<glyph unicode="&#x147;" horiz-adv-x="1445" d="M174 0v1522h270l531 -1063q58 -117 123 -260h4q-10 151 -10 333v990h180v-1522h-268l-537 1092q-102 209 -123 258h-4q10 -167 10 -318v-1032h-176zM324 1931h184l213 -217l215 217h184l-276 -315h-244z" />
<glyph unicode="&#x148;" horiz-adv-x="1220" d="M158 0v1126h182v-88q111 57 199.5 87t175.5 30q88 0 151 -20t102 -54t61 -91t30 -120t8 -151v-719h-184v719q0 159 -37.5 218.5t-151.5 59.5q-127 0 -354 -100v-897h-182zM227 1577h185l213 -217l215 217h184l-276 -315h-244z" />
<glyph unicode="&#x149;" horiz-adv-x="1343" d="M-8 1116l98 469h195l-152 -469h-141zM279 0v1126h182v-88q111 57 199.5 87t175.5 30q88 0 151 -20t102 -54t61 -91t30 -120t8 -151v-719h-184v719q0 159 -37.5 218.5t-151.5 59.5q-127 0 -354 -100v-897h-182z" />
<glyph unicode="&#x14a;" horiz-adv-x="1445" d="M174 0v1522h250l530 -934q95 -169 144 -301h4q-10 151 -10 375v860h180v-1645q0 -172 -70.5 -249t-245.5 -77q-94 0 -151 17v141h141q47 0 74 8t41 30.5t18 50.5t4 79v123l-616 1092q-64 112 -123 258h-4q10 -167 10 -318v-1032h-176z" />
<glyph unicode="&#x14b;" horiz-adv-x="1220" d="M158 0v1126h182v-88q225 117 377 117q88 0 150.5 -20t101 -54t60.5 -91t30 -120t8 -151v-852q0 -173 -62 -246.5t-214 -73.5q-79 0 -146 15v133q54 -4 121 -4q73 0 95 35.5t22 140.5v852q0 159 -37.5 218.5t-149.5 59.5q-131 0 -354 -100v-897h-184z" />
<glyph unicode="&#x14c;" horiz-adv-x="1400" d="M113 651v217q0 326 151.5 502t435.5 176t436 -176t152 -502v-217q0 -326 -152 -503t-436 -177q-283 0 -435 177t-152 503zM303 651q0 -267 105.5 -389.5t291.5 -122.5t292 122.5t106 389.5v217q0 267 -106 388.5t-292 121.5t-291.5 -121.5t-105.5 -388.5v-217zM348 1688 v143h703v-143h-703z" />
<glyph unicode="&#x14d;" d="M113 481v164q0 247 122 378.5t357 131.5q236 0 358.5 -131t122.5 -379v-164q0 -248 -122.5 -379t-358.5 -131q-235 0 -357 131.5t-122 378.5zM242 1341v144h702v-144h-702zM297 481q0 -183 70.5 -265.5t224.5 -82.5q155 0 226 82.5t71 265.5v164q0 183 -71 265.5 t-226 82.5q-153 0 -224 -83t-71 -265v-164z" />
<glyph unicode="&#x14e;" horiz-adv-x="1400" d="M113 651v217q0 326 151.5 502t435.5 176t436 -176t152 -502v-217q0 -326 -152 -503t-436 -177q-283 0 -435 177t-152 503zM303 651q0 -267 105.5 -389.5t291.5 -122.5t292 122.5t106 389.5v217q0 267 -106 388.5t-292 121.5t-291.5 -121.5t-105.5 -388.5v-217zM354 1931 h138q10 -106 59 -150t147 -44q99 0 148 43.5t61 150.5h137q-25 -317 -346 -317q-322 0 -344 317z" />
<glyph unicode="&#x14f;" d="M113 481v164q0 247 122 378.5t357 131.5q236 0 358.5 -131t122.5 -379v-164q0 -248 -122.5 -379t-358.5 -131q-235 0 -357 131.5t-122 378.5zM248 1577h137q10 -106 59.5 -150.5t147.5 -44.5q99 0 148 44t61 151h137q-25 -317 -346 -317q-322 0 -344 317zM297 481 q0 -183 70.5 -265.5t224.5 -82.5q155 0 226 82.5t71 265.5v164q0 183 -71 265.5t-226 82.5q-153 0 -224 -83t-71 -265v-164z" />
<glyph unicode="&#x150;" horiz-adv-x="1400" d="M113 651v217q0 326 151.5 502t435.5 176t436 -176t152 -502v-217q0 -326 -152 -503t-436 -177q-283 0 -435 177t-152 503zM303 651q0 -267 105.5 -389.5t291.5 -122.5t292 122.5t106 389.5v217q0 267 -106 388.5t-292 121.5t-291.5 -121.5t-105.5 -388.5v-217zM367 1614 l268 315h225l-307 -315h-186zM801 1614l270 315h223l-307 -315h-186z" />
<glyph unicode="&#x151;" d="M113 481v164q0 247 122 378.5t357 131.5q236 0 358.5 -131t122.5 -379v-164q0 -248 -122.5 -379t-358.5 -131q-235 0 -357 131.5t-122 378.5zM272 1262l269 315h225l-307 -315h-187zM297 481q0 -183 70.5 -265.5t224.5 -82.5q155 0 226 82.5t71 265.5v164 q0 183 -71 265.5t-226 82.5q-153 0 -224 -83t-71 -265v-164zM707 1262l270 315h223l-307 -315h-186z" />
<glyph unicode="&#x152;" horiz-adv-x="1970" d="M113 651v217q0 328 151.5 503t444.5 175q123 0 284 -24h865v-168h-713v-480h670v-169h-670v-539h713v-166h-865q-23 -3 -66.5 -10t-67 -10t-64 -6t-84.5 -3q-294 0 -446 176t-152 504zM303 651q0 -512 408 -512q97 0 245 21v1196q-146 22 -245 22q-408 0 -408 -510v-217z " />
<glyph unicode="&#x153;" horiz-adv-x="1961" d="M113 481v164q0 247 122 378.5t357 131.5q266 0 391 -166q119 166 383 166q244 0 363.5 -144.5t119.5 -416.5v-98h-776v-23q0 -47 2 -80t10 -72.5t22 -65.5t39 -52t60.5 -41.5t87.5 -25t119 -9.5q177 0 393 37v-148q-176 -45 -399 -45q-310 0 -430 160 q-122 -160 -385 -160q-235 0 -357 131.5t-122 378.5zM297 481q0 -183 70.5 -266.5t224.5 -83.5q155 0 226 83.5t71 266.5v164q0 183 -71 267.5t-226 84.5q-153 0 -224 -84.5t-71 -267.5v-164zM1075 647h584v21q0 48 -5 87.5t-22.5 87t-47.5 79t-85.5 53.5t-130.5 22 q-73 0 -127.5 -20.5t-85 -51t-49.5 -73t-24.5 -77.5t-6.5 -75v-53z" />
<glyph unicode="&#x154;" horiz-adv-x="1304" d="M174 0v1522h358q80 0 146.5 -5t133 -18.5t118.5 -35t97.5 -56.5t75.5 -81.5t47 -111t17 -143.5v-14q0 -175 -72.5 -275.5t-211.5 -148.5l381 -633h-224l-358 594q-41 -2 -143 -2h-177v-592h-188zM362 758h177q117 0 194.5 13t134.5 46.5t83 92t26 147.5v14 q0 71 -18.5 121.5t-52 82t-91 49t-123 24t-160.5 6.5h-170v-596zM487 1616l269 315h223l-307 -315h-185z" />
<glyph unicode="&#x155;" horiz-adv-x="770" d="M158 0v1126h180v-90q150 119 401 119v-164q-109 0 -221.5 -27t-177.5 -69v-895h-182zM344 1262l268 315h224l-308 -315h-184z" />
<glyph unicode="&#x156;" horiz-adv-x="1304" d="M174 0v1522h358q80 0 146.5 -5t133 -18.5t118.5 -35t97.5 -56.5t75.5 -81.5t47 -111t17 -143.5v-14q0 -175 -72.5 -275.5t-211.5 -148.5l381 -633h-224l-358 594q-41 -2 -143 -2h-177v-592h-188zM362 758h177q117 0 194.5 13t134.5 46.5t83 92t26 147.5v14 q0 71 -18.5 121.5t-52 82t-91 49t-123 24t-160.5 6.5h-170v-596zM453 -430l137 291h213l-182 -291h-168z" />
<glyph unicode="&#x157;" horiz-adv-x="770" d="M158 0v1126h180v-90q150 119 401 119v-164q-109 0 -221.5 -27t-177.5 -69v-895h-182zM172 -430l137 291h213l-182 -291h-168z" />
<glyph unicode="&#x158;" horiz-adv-x="1304" d="M174 0v1522h358q80 0 146.5 -5t133 -18.5t118.5 -35t97.5 -56.5t75.5 -81.5t47 -111t17 -143.5v-14q0 -175 -72.5 -275.5t-211.5 -148.5l381 -633h-224l-358 594q-41 -2 -143 -2h-177v-592h-188zM254 1929h184l213 -217l215 217h185l-277 -315h-244zM362 758h177 q117 0 194.5 13t134.5 46.5t83 92t26 147.5v14q0 71 -18.5 121.5t-52 82t-91 49t-123 24t-160.5 6.5h-170v-596z" />
<glyph unicode="&#x159;" horiz-adv-x="770" d="M51 1577h185l213 -217l215 217h184l-277 -315h-243zM158 0v1126h180v-90q150 119 401 119v-164q-109 0 -221.5 -27t-177.5 -69v-895h-182z" />
<glyph unicode="&#x15a;" horiz-adv-x="1198" d="M113 1178q0 187 123 277.5t374 90.5q122 0 245 -14t175 -27v-149q-239 26 -414 26q-159 0 -236 -45t-77 -159q0 -90 43 -145.5t162 -108.5l262 -115q164 -72 239.5 -170t75.5 -254q0 -200 -127 -307t-376 -107q-123 0 -252.5 14.5t-182.5 28.5v148q233 -27 435 -27 q158 0 234.5 59.5t76.5 190.5q0 94 -44.5 152.5t-162.5 111.5l-260 117q-160 71 -236.5 165.5t-76.5 246.5zM477 1616l268 315h224l-307 -315h-185z" />
<glyph unicode="&#x15b;" horiz-adv-x="987" d="M102 874q0 142 99 211.5t309 69.5q102 0 201.5 -14t138.5 -27v-137q-198 20 -332 20q-129 0 -180 -24.5t-51 -98.5q0 -66 38 -104t158 -90l82 -35q138 -61 207 -108t101 -105.5t32 -146.5q0 -314 -420 -314q-105 0 -217 16t-151 29v142q12 -1 86 -9.5t145 -14t131 -5.5 q138 0 190 37t52 115q0 75 -41 113t-186 100l-82 34q-166 70 -238 148.5t-72 197.5zM399 1262l269 315h223l-307 -315h-185z" />
<glyph unicode="&#x15c;" horiz-adv-x="1198" d="M113 1178q0 187 123 277.5t374 90.5q122 0 245 -14t175 -27v-149q-239 26 -414 26q-159 0 -236 -45t-77 -159q0 -90 43 -145.5t162 -108.5l262 -115q164 -72 239.5 -170t75.5 -254q0 -200 -127 -307t-376 -107q-123 0 -252.5 14.5t-182.5 28.5v148q233 -27 435 -27 q158 0 234.5 59.5t76.5 190.5q0 94 -44.5 152.5t-162.5 111.5l-260 117q-160 71 -236.5 165.5t-76.5 246.5zM180 1616l277 315h243l277 -315h-184l-215 215l-213 -215h-185z" />
<glyph unicode="&#x15d;" horiz-adv-x="987" d="M90 1262l277 315h243l277 -315h-185l-215 215l-213 -215h-184zM102 874q0 142 99 211.5t309 69.5q102 0 201.5 -14t138.5 -27v-137q-198 20 -332 20q-129 0 -180 -24.5t-51 -98.5q0 -66 38 -104t158 -90l82 -35q138 -61 207 -108t101 -105.5t32 -146.5q0 -314 -420 -314 q-105 0 -217 16t-151 29v142q12 -1 86 -9.5t145 -14t131 -5.5q138 0 190 37t52 115q0 75 -41 113t-186 100l-82 34q-166 70 -238 148.5t-72 197.5z" />
<glyph unicode="&#x15e;" horiz-adv-x="1198" d="M113 1178q0 187 123 277.5t374 90.5q122 0 245 -14t175 -27v-149q-239 26 -414 26q-159 0 -236 -45t-77 -159q0 -90 43 -145.5t162 -108.5l262 -115q164 -72 239.5 -170t75.5 -254q0 -200 -127 -307t-376 -107q-123 0 -252.5 14.5t-182.5 28.5v148q233 -27 435 -27 q158 0 234.5 59.5t76.5 190.5q0 94 -44.5 152.5t-162.5 111.5l-260 117q-160 71 -236.5 165.5t-76.5 246.5zM291 -430l237 291h230l-279 -291h-188z" />
<glyph unicode="&#x15f;" horiz-adv-x="987" d="M102 874q0 142 99 211.5t309 69.5q102 0 201.5 -14t138.5 -27v-137q-198 20 -332 20q-129 0 -180 -24.5t-51 -98.5q0 -66 38 -104t158 -90l82 -35q138 -61 207 -108t101 -105.5t32 -146.5q0 -314 -420 -314q-105 0 -217 16t-151 29v142q12 -1 86 -9.5t145 -14t131 -5.5 q138 0 190 37t52 115q0 75 -41 113t-186 100l-82 34q-166 70 -238 148.5t-72 197.5zM199 -430l237 291h230l-279 -291h-188z" />
<glyph unicode="&#x160;" horiz-adv-x="1198" d="M113 1178q0 187 123 277.5t374 90.5q122 0 245 -14t175 -27v-149q-239 26 -414 26q-159 0 -236 -45t-77 -159q0 -90 43 -145.5t162 -108.5l262 -115q164 -72 239.5 -170t75.5 -254q0 -200 -127 -307t-376 -107q-123 0 -252.5 14.5t-182.5 28.5v148q233 -27 435 -27 q158 0 234.5 59.5t76.5 190.5q0 94 -44.5 152.5t-162.5 111.5l-260 117q-160 71 -236.5 165.5t-76.5 246.5zM201 1929h184l213 -217l215 217h184l-276 -315h-244z" />
<glyph unicode="&#x161;" horiz-adv-x="987" d="M102 874q0 142 99 211.5t309 69.5q102 0 201.5 -14t138.5 -27v-137q-198 20 -332 20q-129 0 -180 -24.5t-51 -98.5q0 -66 38 -104t158 -90l82 -35q138 -61 207 -108t101 -105.5t32 -146.5q0 -314 -420 -314q-105 0 -217 16t-151 29v142q12 -1 86 -9.5t145 -14t131 -5.5 q138 0 190 37t52 115q0 75 -41 113t-186 100l-82 34q-166 70 -238 148.5t-72 197.5zM104 1577h185l213 -217l215 217h184l-276 -315h-244z" />
<glyph unicode="&#x162;" horiz-adv-x="1249" d="M61 1354v168h1127v-168h-469v-1354h-189v1354h-469zM389 -430l137 291h213l-182 -291h-168z" />
<glyph unicode="&#x163;" horiz-adv-x="825" d="M51 989v137h228v293h184v-293h301v-153h-301v-707q0 -97 19 -122t96 -25q98 0 186 10v-127q-96 -31 -207 -31q-154 0 -216 64t-62 223v715zM270 -430l138 291h213l-183 -291h-168z" />
<glyph unicode="&#x164;" horiz-adv-x="1249" d="M61 1354v168h1127v-168h-469v-1354h-189v1354h-469zM225 1929h185l213 -217l215 217h184l-277 -315h-243z" />
<glyph unicode="&#x165;" horiz-adv-x="825" d="M51 989v137h228v293h184v-293h301v-153h-301v-707q0 -97 19 -122t96 -25q98 0 186 10v-127q-96 -31 -207 -31q-154 0 -216 64t-62 223v715zM578 1255l71 330h195l-125 -330h-141z" />
<glyph unicode="&#x166;" horiz-adv-x="1249" d="M61 1354v168h1127v-168h-469v-402h420v-166h-420v-786h-189v786h-417v166h417v402h-469z" />
<glyph unicode="&#x167;" horiz-adv-x="825" d="M51 678v133h228v162l-228 16v137h228v293h182v-293h301v-153h-301v-162h301v-154h-301v-391q0 -96 19.5 -120.5t97.5 -24.5t184 8v-127q-28 -10 -88 -19.5t-119 -9.5q-153 0 -214.5 63t-61.5 222v399z" />
<glyph unicode="&#x168;" horiz-adv-x="1431" d="M164 633v889h188v-869q0 -281 79.5 -396.5t285.5 -115.5q204 0 284 116t80 396v869h187v-889q0 -330 -138.5 -496t-412.5 -166q-553 0 -553 662zM315 1616v70q0 253 205 253q57 0 101 -17.5t98 -59.5l86 -70q72 -59 121 -59q42 0 56.5 28.5t14.5 93.5v70h131v-70 q0 -124 -45 -188.5t-153 -64.5q-102 0 -209 84l-84 67q-36 31 -61 44t-56 13q-41 0 -56 -30t-15 -94v-70h-134z" />
<glyph unicode="&#x169;" horiz-adv-x="1220" d="M154 408v718h182v-718q0 -160 37.5 -219.5t152.5 -59.5q126 0 353 100v897h184v-1126h-184v88q-231 -117 -392 -117q-81 0 -141.5 22.5t-96.5 60t-58 95.5t-29.5 119t-7.5 140zM207 1268v69q0 254 205 254q57 0 100.5 -17.5t97.5 -60.5l86 -69q38 -31 64.5 -45.5 t56.5 -14.5q42 0 57 29.5t15 93.5v70h131v-70q0 -124 -45.5 -189t-153.5 -65q-102 0 -209 84l-84 68q-36 31 -60.5 44t-55.5 13q-41 0 -56.5 -30.5t-15.5 -94.5v-69h-133z" />
<glyph unicode="&#x16a;" horiz-adv-x="1431" d="M164 633v889h188v-869q0 -281 79.5 -396.5t285.5 -115.5q204 0 284 116t80 396v869h187v-889q0 -330 -138.5 -496t-412.5 -166q-553 0 -553 662zM365 1688v143h702v-143h-702z" />
<glyph unicode="&#x16b;" horiz-adv-x="1220" d="M154 408v718h182v-718q0 -160 37.5 -219.5t152.5 -59.5q126 0 353 100v897h184v-1126h-184v88q-231 -117 -392 -117q-81 0 -141.5 22.5t-96.5 60t-58 95.5t-29.5 119t-7.5 140zM262 1341v144h703v-144h-703z" />
<glyph unicode="&#x16c;" horiz-adv-x="1431" d="M164 633v889h188v-869q0 -281 79.5 -396.5t285.5 -115.5q204 0 284 116t80 396v869h187v-889q0 -330 -138.5 -496t-412.5 -166q-553 0 -553 662zM371 1913h137q10 -106 59.5 -150.5t147.5 -44.5q99 0 148 44t61 151h137q-25 -318 -346 -318q-322 0 -344 318z" />
<glyph unicode="&#x16d;" horiz-adv-x="1220" d="M154 408v718h182v-718q0 -160 37.5 -219.5t152.5 -59.5q126 0 353 100v897h184v-1126h-184v88q-231 -117 -392 -117q-81 0 -141.5 22.5t-96.5 60t-58 95.5t-29.5 119t-7.5 140zM268 1577h138q10 -106 59 -150.5t147 -44.5q99 0 148 44t61 151h137q-25 -317 -346 -317 q-322 0 -344 317z" />
<glyph unicode="&#x16e;" horiz-adv-x="1431" d="M164 633v889h188v-869q0 -281 79.5 -396.5t285.5 -115.5q204 0 284 116t80 396v869h187v-889q0 -330 -138.5 -496t-412.5 -166q-553 0 -553 662zM477 1800q0 113 67 168t175 55q106 0 170.5 -55t64.5 -168t-64.5 -168t-170.5 -55q-108 0 -175 55t-67 168zM604 1800 q0 -112 115 -112q50 0 81 26.5t31 85.5q0 113 -112 113q-115 0 -115 -113z" />
<glyph unicode="&#x16f;" horiz-adv-x="1220" d="M154 408v718h182v-718q0 -160 37.5 -219.5t152.5 -59.5q126 0 353 100v897h184v-1126h-184v88q-231 -117 -392 -117q-81 0 -141.5 22.5t-96.5 60t-58 95.5t-29.5 119t-7.5 140zM379 1464q0 113 67 168.5t175 55.5q106 0 170.5 -55.5t64.5 -168.5t-64.5 -168t-170.5 -55 q-108 0 -175 55t-67 168zM506 1464q0 -112 115 -112q50 0 81 26.5t31 85.5q0 113 -112 113q-115 0 -115 -113z" />
<glyph unicode="&#x170;" horiz-adv-x="1431" d="M164 633v889h188v-869q0 -281 79.5 -396.5t285.5 -115.5q204 0 284 116t80 396v869h187v-889q0 -330 -138.5 -496t-412.5 -166q-553 0 -553 662zM387 1616l268 315h226l-308 -315h-186zM821 1616l271 315h223l-307 -315h-187z" />
<glyph unicode="&#x171;" horiz-adv-x="1220" d="M154 408v718h182v-718q0 -160 37.5 -219.5t152.5 -59.5q126 0 353 100v897h184v-1126h-184v88q-231 -117 -392 -117q-81 0 -141.5 22.5t-96.5 60t-58 95.5t-29.5 119t-7.5 140zM293 1262l268 315h225l-307 -315h-186zM727 1262l270 315h224l-308 -315h-186z" />
<glyph unicode="&#x172;" horiz-adv-x="1431" d="M164 633v889h188v-869q0 -281 79.5 -396.5t285.5 -115.5q204 0 284 116t80 396v869h187v-889q0 -452 -267 -600q-92 -51 -151.5 -93t-86 -75t-34.5 -55t-8 -48q0 -44 28 -67t95 -23q74 0 157 9v-103q-75 -22 -178 -22q-125 0 -191.5 50t-66.5 146q0 60 32 111t105 108 q-538 9 -538 662z" />
<glyph unicode="&#x173;" horiz-adv-x="1220" d="M154 408v718h182v-718q0 -160 37.5 -219.5t152.5 -59.5q126 0 353 100v897h184v-1126q-168 -77 -223.5 -130t-55.5 -103q0 -95 121 -95q7 0 158 11v-107q-57 -20 -174 -20q-127 0 -193.5 53.5t-66.5 148.5q0 70 67 139.5t183 122.5v68q-231 -117 -392 -117 q-81 0 -141.5 22.5t-96.5 60t-58 95.5t-29.5 119t-7.5 140z" />
<glyph unicode="&#x174;" horiz-adv-x="1843" d="M92 1522h201l178 -1069q8 -50 24.5 -151.5t24.5 -151.5h10q12 50 33 150.5t33 150.5l182 845h295l184 -852q10 -49 32 -147t32 -147h10q13 99 47 303l181 1069h192l-274 -1522h-301l-207 942q-7 33 -21.5 97.5t-21.5 97.5h-6q-7 -33 -21.5 -97.5t-21.5 -97.5l-205 -942 h-305zM526 1616l277 315h244l276 -315h-184l-215 215l-213 -215h-185z" />
<glyph unicode="&#x175;" horiz-adv-x="1701" d="M61 1126h189l149 -696q38 -188 45 -291h11q14 47 38.5 145t38.5 144l177 606h286l176 -606q14 -47 39.5 -145t38.5 -144h11q7 103 45 291l149 696h186l-254 -1126h-266l-202 676q-46 146 -62 227h-8q-16 -81 -62 -227l-202 -676h-267zM453 1262l276 315h244l276 -315 h-184l-215 215l-213 -215h-184z" />
<glyph unicode="&#x176;" horiz-adv-x="1284" d="M41 1522h207l276 -502q82 -151 117 -242h12q10 27 27 62.5t30 59t35.5 65t30.5 55.5l275 502h192l-508 -920v-602h-186v602zM250 1616l276 315h244l277 -315h-185l-215 215l-213 -215h-184z" />
<glyph unicode="&#x177;" horiz-adv-x="1120" d="M47 -295q117 -8 213 -8q79 0 116.5 44.5t86.5 176.5l31 82l-437 1126h203l229 -632q43 -122 91 -299h4q38 158 86 301l207 630h196l-428 -1226q-26 -74 -47 -121.5t-52.5 -96.5t-68.5 -76.5t-90 -45t-121 -17.5q-117 0 -219 21v141zM178 1262l277 315h243l277 -315h-184 l-216 215l-213 -215h-184z" />
<glyph unicode="&#x178;" horiz-adv-x="1284" d="M41 1522h207l276 -502q82 -151 117 -242h12q10 27 27 62.5t30 59t35.5 65t30.5 55.5l275 502h192l-508 -920v-602h-186v602zM330 1657v241h168v-241h-168zM799 1657v241h166v-241h-166z" />
<glyph unicode="&#x179;" horiz-adv-x="1277" d="M113 0v209l821 1145h-791v168h994v-207l-820 -1149h848v-166h-1052zM545 1616l268 315h223l-307 -315h-184z" />
<glyph unicode="&#x17a;" horiz-adv-x="999" d="M82 0v207l627 766h-600v153h796v-190l-637 -784h639v-152h-825zM416 1262l268 315h223l-307 -315h-184z" />
<glyph unicode="&#x17b;" horiz-adv-x="1277" d="M113 0v209l821 1145h-791v168h994v-207l-820 -1149h848v-166h-1052zM547 1657v246h182v-246h-182z" />
<glyph unicode="&#x17c;" horiz-adv-x="999" d="M82 0v207l627 766h-600v153h796v-190l-637 -784h639v-152h-825zM430 1333v246h182v-246h-182z" />
<glyph unicode="&#x17d;" horiz-adv-x="1277" d="M113 0v209l821 1145h-791v168h994v-207l-820 -1149h848v-166h-1052zM266 1931h185l213 -217l215 217h184l-277 -315h-243z" />
<glyph unicode="&#x17e;" horiz-adv-x="999" d="M82 0v207l627 766h-600v153h796v-190l-637 -784h639v-152h-825zM133 1577h184l213 -217l215 217h185l-277 -315h-243z" />
<glyph unicode="&#x192;" horiz-adv-x="1306" d="M123 -258l18 129q92 -10 162 -10q39 0 63 5.5t48.5 23.5t40 56.5t24.5 100.5l96 678h-319l23 154h321l49 348q26 181 109 250t233 69q101 0 195 -24l-17 -129q-102 10 -153 10q-44 0 -71 -6.5t-51.5 -26t-39.5 -57.5t-23 -99l-47 -335h355l-23 -154h-358l-96 -690 q-13 -93 -42.5 -156.5t-74.5 -98t-96.5 -49t-118.5 -14.5q-105 0 -207 25z" />
<glyph unicode="&#x1fa;" horiz-adv-x="1357" d="M51 0l498 1522h260l498 -1522h-201l-158 498h-545l-161 -498h-191zM440 1767q0 113 67 168.5t175 55.5q106 0 171 -55.5t65 -168.5t-65 -168t-171 -55q-108 0 -175 55t-67 168zM459 670h432l-143 444q-38 116 -62 250h-20q-31 -157 -62 -250zM567 1767q0 -112 115 -112 q50 0 81.5 26.5t31.5 85.5q0 113 -113 113q-115 0 -115 -113zM573 2017l269 316h223l-307 -316h-185z" />
<glyph unicode="&#x1fb;" horiz-adv-x="1116" d="M102 291v41q0 87 24.5 150t66.5 101t110.5 60t142 29.5t175.5 7.5h167v82q0 77 -9 120t-39 71t-79 37t-137 9q-137 0 -348 -24v131q39 14 144 31.5t219 17.5q93 0 162.5 -11t117 -34.5t78 -54.5t47.5 -78t23 -96.5t6 -118.5v-762h-176v76q-152 -105 -359 -105 q-336 0 -336 320zM287 276q0 -90 48.5 -125.5t139.5 -35.5q89 0 178 29.5t135 60.5v336h-167q-96 0 -153.5 -7.5t-101.5 -29.5t-61.5 -63.5t-17.5 -108.5v-56zM346 1427q0 113 67 168.5t175 55.5q106 0 170.5 -55.5t64.5 -168.5t-64.5 -168t-170.5 -55q-108 0 -175 55 t-67 168zM473 1427q0 -112 115 -112q50 0 81 26.5t31 85.5q0 113 -112 113q-115 0 -115 -113zM487 1688l269 315h223l-307 -315h-185z" />
<glyph unicode="&#x1fc;" horiz-adv-x="1974" d="M72 0l491 1522h1299v-168h-713v-480h672v-169h-672v-539h713v-166h-899v498h-541l-158 -498h-192zM477 666h486v690h-271q-9 -30 -31 -108t-36 -122zM1057 1616l268 315h223l-307 -315h-184z" />
<glyph unicode="&#x1fd;" horiz-adv-x="1861" d="M102 291v41q0 87 24.5 150t66.5 101t110.5 60t142 29.5t175.5 7.5h167v82q0 77 -9 120t-39 71t-79 37t-137 9q-137 0 -348 -24v131q39 14 144 31.5t219 17.5q169 0 251 -31t125 -96q122 125 353 125q243 0 362 -144t119 -415v-98h-774v-23q0 -68 4.5 -111.5t24 -92.5 t54.5 -77t99 -46.5t156 -18.5q179 0 395 37v-148q-180 -45 -399 -45q-302 0 -420 140q-107 -72 -213 -106t-238 -34q-336 0 -336 320zM287 276q0 -90 48.5 -125.5t139.5 -35.5q89 0 178 29.5t135 60.5v336h-167q-96 0 -153.5 -7.5t-101.5 -29.5t-61.5 -63.5t-17.5 -108.5 v-56zM838 1262l268 315h223l-307 -315h-184zM977 647h584v21q0 48 -5 87.5t-23 86t-48.5 78.5t-86 53.5t-130.5 21.5q-291 0 -291 -327v-21z" />
<glyph unicode="&#x1fe;" horiz-adv-x="1400" d="M59 0l156 217q-102 167 -102 434v217q0 326 151.5 502t435.5 176q230 0 379 -121l68 95h194l-155 -217q102 -167 102 -435v-217q0 -326 -152 -503t-436 -177q-236 0 -381 121l-65 -92h-195zM303 651q0 -156 37 -260l633 885q-99 102 -273 102q-186 0 -291.5 -121.5 t-105.5 -388.5v-217zM426 242q100 -103 274 -103q186 0 292 122.5t106 389.5v217q0 156 -37 260zM535 1616l268 315h223l-307 -315h-184z" />
<glyph unicode="&#x1ff;" d="M47 -49l150 196q-84 128 -84 334v164q0 248 121.5 379t357.5 131q185 0 307 -86l82 107h190l-170 -222q72 -126 72 -309v-164q0 -248 -122.5 -379t-358.5 -131q-170 0 -285 70l-69 -90h-191zM297 481q0 -107 20 -174l478 625q-70 61 -203 61q-154 0 -224.5 -82.5 t-70.5 -265.5v-164zM410 178q68 -45 182 -45q154 0 225.5 83t71.5 265v164q0 64 -15 141zM469 1262l268 315h224l-308 -315h-184z" />
<glyph unicode="&#x218;" horiz-adv-x="1198" d="M113 1178q0 187 123 277.5t374 90.5q122 0 245 -14t175 -27v-149q-239 26 -414 26q-159 0 -236 -45t-77 -159q0 -90 43 -145.5t162 -108.5l262 -115q164 -72 239.5 -170t75.5 -254q0 -200 -127 -307t-376 -107q-123 0 -252.5 14.5t-182.5 28.5v148q233 -27 435 -27 q158 0 234.5 59.5t76.5 190.5q0 94 -44.5 152.5t-162.5 111.5l-260 117q-160 71 -236.5 165.5t-76.5 246.5zM375 -430l137 291h213l-182 -291h-168z" />
<glyph unicode="&#x219;" horiz-adv-x="987" d="M102 874q0 142 99 211.5t309 69.5q102 0 201.5 -14t138.5 -27v-137q-198 20 -332 20q-129 0 -180 -24.5t-51 -98.5q0 -66 38 -104t158 -90l82 -35q138 -61 207 -108t101 -105.5t32 -146.5q0 -314 -420 -314q-105 0 -217 16t-151 29v142q12 -1 86 -9.5t145 -14t131 -5.5 q138 0 190 37t52 115q0 75 -41 113t-186 100l-82 34q-166 70 -238 148.5t-72 197.5zM260 -430l137 291h213l-182 -291h-168z" />
<glyph unicode="&#x21a;" horiz-adv-x="1249" d="M61 1354v168h1127v-168h-469v-1354h-189v1354h-469zM389 -430l137 291h213l-182 -291h-168z" />
<glyph unicode="&#x21b;" horiz-adv-x="825" d="M51 989v137h228v293h184v-293h301v-153h-301v-707q0 -97 19 -122t96 -25q98 0 186 10v-127q-96 -31 -207 -31q-154 0 -216 64t-62 223v715zM270 -430l138 291h213l-183 -291h-168z" />
<glyph unicode="&#x2c6;" horiz-adv-x="935" d="M70 1262l276 315h244l276 -315h-184l-215 215l-213 -215h-184z" />
<glyph unicode="&#x2da;" horiz-adv-x="935" d="M229 1464q0 113 67 168.5t175 55.5q106 0 171 -55.5t65 -168.5t-65 -168t-171 -55q-108 0 -175 55t-67 168zM356 1464q0 -112 115 -112q51 0 82 26.5t31 85.5q0 113 -113 113q-115 0 -115 -113z" />
<glyph unicode="&#x2dc;" horiz-adv-x="935" d="M68 1268v69q0 254 204 254q57 0 101 -18t98 -60l86 -69q38 -31 64.5 -45.5t56.5 -14.5q42 0 57 29.5t15 93.5v70h131v-70q0 -124 -45.5 -189t-153.5 -65q-102 0 -209 84l-84 68q-36 31 -61 44t-56 13q-41 0 -56 -30.5t-15 -94.5v-69h-133z" />
<glyph unicode="&#x1e80;" horiz-adv-x="1843" d="M92 1522h201l178 -1069q8 -50 24.5 -151.5t24.5 -151.5h10q12 50 33 150.5t33 150.5l182 845h295l184 -852q10 -49 32 -147t32 -147h10q13 99 47 303l181 1069h192l-274 -1522h-301l-207 942q-7 33 -21.5 97.5t-21.5 97.5h-6q-7 -33 -21.5 -97.5t-21.5 -97.5l-205 -942 h-305zM608 1931h223l269 -315h-185z" />
<glyph unicode="&#x1e81;" horiz-adv-x="1701" d="M61 1126h189l149 -696q38 -188 45 -291h11q14 47 38.5 145t38.5 144l177 606h286l176 -606q14 -47 39.5 -145t38.5 -144h11q7 103 45 291l149 696h186l-254 -1126h-266l-202 676q-46 146 -62 227h-8q-16 -81 -62 -227l-202 -676h-267zM496 1577h223l268 -315h-184z" />
<glyph unicode="&#x1e82;" horiz-adv-x="1843" d="M92 1522h201l178 -1069q8 -50 24.5 -151.5t24.5 -151.5h10q12 50 33 150.5t33 150.5l182 845h295l184 -852q10 -49 32 -147t32 -147h10q13 99 47 303l181 1069h192l-274 -1522h-301l-207 942q-7 33 -21.5 97.5t-21.5 97.5h-6q-7 -33 -21.5 -97.5t-21.5 -97.5l-205 -942 h-305zM805 1616l268 315h223l-307 -315h-184z" />
<glyph unicode="&#x1e83;" horiz-adv-x="1701" d="M61 1126h189l149 -696q38 -188 45 -291h11q14 47 38.5 145t38.5 144l177 606h286l176 -606q14 -47 39.5 -145t38.5 -144h11q7 103 45 291l149 696h186l-254 -1126h-266l-202 676q-46 146 -62 227h-8q-16 -81 -62 -227l-202 -676h-267zM713 1262l268 315h223l-307 -315 h-184z" />
<glyph unicode="&#x1e84;" horiz-adv-x="1843" d="M92 1522h201l178 -1069q8 -50 24.5 -151.5t24.5 -151.5h10q12 50 33 150.5t33 150.5l182 845h295l184 -852q10 -49 32 -147t32 -147h10q13 99 47 303l181 1069h192l-274 -1522h-301l-207 942q-7 33 -21.5 97.5t-21.5 97.5h-6q-7 -33 -21.5 -97.5t-21.5 -97.5l-205 -942 h-305zM606 1657v241h168v-241h-168zM1075 1657v241h166v-241h-166z" />
<glyph unicode="&#x1e85;" horiz-adv-x="1701" d="M61 1126h189l149 -696q38 -188 45 -291h11q14 47 38.5 145t38.5 144l177 606h286l176 -606q14 -47 39.5 -145t38.5 -144h11q7 103 45 291l149 696h186l-254 -1126h-266l-202 676q-46 146 -62 227h-8q-16 -81 -62 -227l-202 -676h-267zM532 1317v242h168v-242h-168z M1001 1317v242h166v-242h-166z" />
<glyph unicode="&#x1ef2;" horiz-adv-x="1284" d="M41 1522h207l276 -502q82 -151 117 -242h12q10 27 27 62.5t30 59t35.5 65t30.5 55.5l275 502h192l-508 -920v-602h-186v602zM299 1929h223l269 -315h-185z" />
<glyph unicode="&#x1ef3;" horiz-adv-x="1120" d="M47 -295q117 -8 213 -8q79 0 116.5 44.5t86.5 176.5l31 82l-437 1126h203l229 -632q43 -122 91 -299h4q38 158 86 301l207 630h196l-428 -1226q-26 -74 -47 -121.5t-52.5 -96.5t-68.5 -76.5t-90 -45t-121 -17.5q-117 0 -219 21v141zM227 1577h224l268 -315h-184z" />
<glyph unicode="&#x2000;" horiz-adv-x="1166" />
<glyph unicode="&#x2001;" horiz-adv-x="2333" />
<glyph unicode="&#x2002;" horiz-adv-x="1166" />
<glyph unicode="&#x2003;" horiz-adv-x="2333" />
<glyph unicode="&#x2004;" horiz-adv-x="777" />
<glyph unicode="&#x2005;" horiz-adv-x="583" />
<glyph unicode="&#x2006;" horiz-adv-x="388" />
<glyph unicode="&#x2007;" horiz-adv-x="388" />
<glyph unicode="&#x2008;" horiz-adv-x="291" />
<glyph unicode="&#x2009;" horiz-adv-x="466" />
<glyph unicode="&#x200a;" horiz-adv-x="129" />
<glyph unicode="&#x2010;" horiz-adv-x="811" d="M152 522v154h505v-154h-505z" />
<glyph unicode="&#x2011;" horiz-adv-x="811" d="M152 522v154h505v-154h-505z" />
<glyph unicode="&#x2012;" horiz-adv-x="811" d="M152 522v154h505v-154h-505z" />
<glyph unicode="&#x2013;" horiz-adv-x="1032" d="M152 522v156h729v-156h-729z" />
<glyph unicode="&#x2014;" horiz-adv-x="1316" d="M152 522v156h1013v-156h-1013z" />
<glyph unicode="&#x2018;" horiz-adv-x="374" d="M41 1116l154 469h139l-96 -469h-197z" />
<glyph unicode="&#x2019;" horiz-adv-x="374" d="M41 1116l98 469h195l-152 -469h-141z" />
<glyph unicode="&#x201a;" horiz-adv-x="374" d="M41 -193l98 467h195l-152 -467h-141z" />
<glyph unicode="&#x201c;" horiz-adv-x="749" d="M41 1116l152 469h141l-98 -469h-195zM416 1116l151 469h142l-99 -469h-194z" />
<glyph unicode="&#x201d;" horiz-adv-x="749" d="M41 1116l98 469h195l-152 -469h-141zM416 1116l98 469h195l-152 -469h-141z" />
<glyph unicode="&#x201e;" horiz-adv-x="749" d="M41 -193l98 467h195l-152 -467h-141zM416 -193l98 467h195l-152 -467h-141z" />
<glyph unicode="&#x2026;" horiz-adv-x="1683" d="M170 0v283h186v-283h-186zM750 0v283h184v-283h-184zM1327 0v283h184v-283h-184z" />
<glyph unicode="&#x202f;" horiz-adv-x="466" />
<glyph unicode="&#x2039;" horiz-adv-x="782" d="M115 592l334 422h217l-324 -422l324 -426h-217z" />
<glyph unicode="&#x203a;" horiz-adv-x="782" d="M115 166l325 426l-325 422h217l336 -422l-336 -426h-217z" />
<glyph unicode="&#x205f;" horiz-adv-x="583" />
<glyph unicode="&#x20a1;" horiz-adv-x="987" d="M131 477v174q0 342 225 455v254h150v-211q38 6 94 6h43v205h150v-223q59 -6 110 -21v-139q-195 20 -297 20q-70 0 -120 -15t-90.5 -52t-60.5 -106.5t-20 -172.5v-174q0 -100 20 -169.5t60 -108t90.5 -54.5t120.5 -16q94 0 297 21v-140q-42 -10 -110 -20v-207h-150v188 h-49q-50 0 -88 6v-194h-150v237q-110 56 -167.5 172t-57.5 285z" />
<glyph unicode="&#x20a3;" horiz-adv-x="1210" d="M86 324v170h109v1028h901v-168h-713v-480h670v-169h-670v-211h428v-170h-428v-324h-188v324h-109z" />
<glyph unicode="&#x20a4;" horiz-adv-x="1323" d="M150 477v156h159v162h-159v155h159v80q0 108 11.5 185t41.5 142.5t82 105.5t132.5 61.5t193.5 21.5q222 0 389 -41v-155q-208 32 -377 32q-56 0 -96.5 -6t-71.5 -17t-51.5 -32.5t-33.5 -46t-19.5 -65t-9 -82t-2.5 -103.5v-80h510v-155h-510v-162h510v-156h-510v-76 q0 -139 -74 -241h735v-160h-942v143q92 100 92 258v76h-159z" />
<glyph unicode="&#x20a7;" horiz-adv-x="1411" d="M84 983v166h137v373q53 0 156.5 1t152.5 1q84 0 148.5 -3t136.5 -12.5t125 -25.5t105.5 -44.5t88 -67.5t61 -95t34.5 -127h119v-166h-117q-8 -80 -35.5 -141.5t-62.5 -102.5t-96 -69.5t-113.5 -43.5t-139.5 -23t-148.5 -9.5t-164.5 -1.5h-61v-592h-189v983h-137zM410 758 h47q84 0 123.5 0.5t106 3t97 7.5t77.5 14.5t67.5 24t48.5 36t39 50.5t19.5 67t8.5 86v26q0 52 -8 92t-29.5 69.5t-41.5 50t-64 33.5t-76 20.5t-98 11t-109.5 4t-130.5 0.5h-77v-596z" />
<glyph unicode="&#x20ac;" horiz-adv-x="1366" d="M127 510v145h131q-4 82 -4 127q0 55 2 82h-129v146h145q11 98 36.5 177t59 134.5t79.5 96.5t93 65t104.5 38.5t109 19.5t112.5 5q187 0 357 -35v-155q-249 22 -346 22q-67 0 -114 -6t-99.5 -27.5t-88 -60.5t-65 -108t-43.5 -166h676l-41 -146h-653q-3 -40 -3 -80 q0 -22 5 -129h587l-39 -145h-528q15 -97 45 -166.5t65.5 -108.5t87.5 -61t98 -28.5t110 -6.5q86 0 346 23v-156q-170 -35 -357 -35q-59 0 -110.5 5.5t-108 20.5t-103 40t-92 66.5t-79.5 97t-60 134t-39 175.5h-147z" />
<glyph unicode="&#x2122;" horiz-adv-x="1816" d="M88 1401v121h643v-121h-244v-686h-153v686h-246zM860 715v807h176l166 -285q29 -48 49 -94h2q28 58 50 94l167 285h179v-807h-152v463q0 82 6 159h-2q-46 -95 -65 -125l-123 -198h-121l-119 198q-31 51 -67 125h-2q6 -77 6 -159v-463h-150z" />
<glyph unicode="&#x25fc;" horiz-adv-x="1126" d="M0 0v1126h1126v-1126h-1126z" />
</font>
</defs>
</svg>
